Login
Username:
Password:
[Signup]
[Recover Account]


Browse Torrents

Poll


You must be logged in to view polls



Latest Torrents
Constantine.City.o...
- [Size: 435.81 MB]

Ravens.Home.S02E16...
- [Size: 194.08 MB]

Coop.and.Cami.Ask....
- [Size: 189.33 MB]

Impractical.Jokers...
- [Size: 454.35 MB]

Major Lazer - Majo...
- [Size: 206.00 MB]


Torrent Details For "Zoom Zumba Dance Fitness Party Music Video Mash Up 720p By Sagarsingha"

Zoom Zumba Dance Fitness Party Music Video Mash Up 720p By Sagarsingha

Download this torrent | Magnet Download
Health:
Seeds: 0
Leechers: 0
Completed:
Last Checked: 07-11-2017 15:50:02
External Torrent
Update Stats



Watch-Free-HD     Download
Poster


Watch-Free-HD     Download

Details
Name:Zoom Zumba Dance Fitness Party Music Video Mash Up 720p By Sagarsingha
Description:

Quote:

General
Complete name : Zoom Zumba Dance Fitness Party Music Video MashUp.mp4
Format : MPEG-4
Format profile : Base Media / Version 2
Codec ID : mp42 (isom/mp42)
File size : 70.7 MiB
Duration : 4 min 12 s
Overall bit rate mode : Variable
Overall bit rate : 2 353 kb/s

Video #1
ID : 1
Format : AVC
Format/Info : Advanced Video Codec
Format profile : [email protected]
Format settings, CABAC : Yes
Format settings, ReFrames : 3 frames
Codec ID : avc1
Codec ID/Info : Advanced Video Coding
Duration : 4 min 12 s
Bit rate : 2 223 kb/s
Width : 1 280 pixels
Height : 720 pixels
Display aspect ratio : 16:9
Frame rate mode : Constant
Frame rate : 25.000 FPS
Color space : YUV
Chroma subsampling : 4:2:0
Bit depth : 8 bits
Scan type : Progressive
Bits/(Pixel*Frame) : 0.097
Stream size : 66.8 MiB (95%)


Audio #2
ID : 2
Format : AAC
Format/Info : Advanced Audio Codec
Format profile : LC
Codec ID : 40
Duration : 4 min 12 s
Bit rate mode : Variable
Bit rate : 126 kb/s
Channel(s) : 2 channels
Channel positions : Front: L R
Sampling rate : 44.1 kHz
Frame rate : 43.066 FPS (1024 spf)
Compression mode : Lossy
Stream size : 3.78 MiB (5%)

Category:Music > Videos
Lang:Hindi
Total Size:70.74 MB
Info Hash:968cfe74503c228a797aa9b76053dfd6a0d651a8
Added By:sagarsingha
Date Added:03-08-2017 00:57:53
Downloads:724

Ratings:Not Yet Rated (Log in to rate it)

  


Tracker:
udp://tracker.coppersurfer.tk:6969/announce


File List: 


Comments

No comments still posted

Top
Copyright 2018 DownloadHD -|- Page Generated In 0.070105 secs.
-|- RSS Feed -|- Feed Info