Insecure – Saison 3 VF | Темный дворецкий: Книга Атлантики (фильм) / Kuroshitsuji: Book of the Atlantic (2017) BDRip 720p | L | Baixar XAPK


Login
Username:
Password:
[Signup]
[Recover Account]


Browse Torrents

Poll


You must be logged in to view polls



Latest Torrents
This Old Machine 2...
- [Size: 747.73 MB]

Viking Destiny 201...
- [Size: 2.30 GB]

Lockdown S01 Ep1 a...
- [Size: 777.01 MB]

Mysteries.at.the.M...
- [Size: 1.30 GB]

Woman.Walks.Ahead....
- [Size: 595.67 MB]


Torrent Details For "Kis Kiss Ka Kissa 2017 Hindi Untouched 1080p WEBHD x264 AAC - DownloadHD"

Kis Kiss Ka Kissa 2017 Hindi Untouched 1080p WEBHD x264 AAC - DownloadHD

Download this torrent | Magnet Download
Health:
Seeds: 0
Leechers: 22
Completed: 737 
Last Checked: 07-02-2018 16:51:17
External Torrent
Update Stats



Poster



Details
Name:Kis Kiss Ka Kissa 2017 Hindi Untouched 1080p WEBHD x264 AAC - DownloadHD
Description:



Kis Kiss Ka Kissa 2017 Hindi Untouched 1080p WEBHD x264 AAC - DownloadHD


Format                      : Matroska
Format version              : Version 4 / Version 2
File size                   : 3.36 GiB
Duration                    : 1 h 24 min
Overall bit rate            : 5 709 kb/s
Movie name                  : DownloadHD


Video
ID                          : 1
Format                      : AVC
Format/Info                 : Advanced Video Codec
Format profile              : [email protected]
Format settings, CABAC      : Yes
Format settings, ReFrames   : 1 frame
Format settings, GOP        : M=1, N=25
Codec ID                    : V_MPEG4/ISO/AVC
Duration                    : 1 h 24 min
Bit rate mode               : Constant
Bit rate                    : 5 581 kb/s
Nominal bit rate            : 6 000 kb/s
Width                       : 1 920 pixels
Height                      : 1 080 pixels
Display aspect ratio        : 16:9
Frame rate mode             : Constant
Frame rate                  : 25.000 FPS
Color space                 : YUV
Chroma subsampling          : 4:2:0
Bit depth                   : 8 bits
Scan type                   : Progressive
Bits/(Pixel*Frame)          : 0.108
Stream size                 : 3.28 GiB (98%)
Default                     : Yes
Forced                      : No

Audio
ID                          : 2
Format                      : AAC
Format/Info                 : Advanced Audio Codec
Format profile              : LC
Codec ID                    : A_AAC
Duration                    : 1 h 24 min
Bit rate                    : 125 kb/s
Channel(s)                  : 2 channels
Channel positions           : Front: L R
Sampling rate               : 48.0 kHz
Frame rate                  : 46.875 FPS (1024 spf)
Compression mode            : Lossy
Stream size                 : 75.6 MiB (2%)
Language                    : Hindi
Default                     : Yes
Forced                      : No


       
Category:Movies > Bollywood
Lang:Hindi
Total Size:3.36 GB
Info Hash:9f151a1e8d5eede05c700564152874482b66a398
Added By:Unknown
Date Added:09-05-2017 12:41:15
Downloads:444

Ratings:Not Yet Rated (Log in to rate it)


Tracker:
udp://tracker.coppersurfer.tk:6969/announce


File List: 


Comments

No comments still posted

Copyright 2018 DownloadHD -|- Page Generated In 1.395929 secs.
-|- RSS Feed -|- Feed Info