Sarah Croce | Lucifer S03E26 WEB x264-TBS[eztv] | Mode Nuit


Login
Username:
Password:
[Signup]
[Recover Account]


Browse Torrents

Poll


You must be logged in to view polls



Latest Torrents
The.Opposition.wit...
- [Size: 277.48 MB]

Jurassic World Fal...
- [Size: 1.37 GB]

The.Daily.Show.201...
- [Size: 273.06 MB]

The.Expanse.S03E11...
- [Size: 856.86 MB]

The.Expanse.S03E11...
- [Size: 270.78 MB]


Torrent Details For "Total.Frat.Movie.2016.1080p.WEB-DL.DD5.1.H264-FGT-[HDSector]"

Total.Frat.Movie.2016.1080p.WEB-DL.DD5.1.H264-FGT-[HDSector]

Download this torrent | Magnet Download
Health:
Seeds: 0
Leechers: 2
Completed:
Last Checked: 31-05-2018 08:24:48
External Torrent
Update Stats


Watch-Free-HD     Download

Poster


iMDB
Imdb Picture Title: Total Frat Movie
Year: 2016
Runtime: 93 minutes
Votes: 263
Rating: 4.4/10
Language: English
Country: USA
All Genres: Comedy
Plot Outline: Charlie Martin, a JI whose fraternity gets kicked off campus after it takes the rap for a rival fraternity gone awry. Three years later, Charlie and the remaining brothers must throw the ...
Director: Warren P. Sonoda
Writing By: Stephen Fromkin,Sacha Pavlovic,
Produced By: Bernard Bourret,Neil Bregman,Jonathan Bronfman,Kym Crepin,Fred Fuchs,Jordan Gershowitz,Brian K. Ross,Bob Sanitsky,Robert Wertheimer,
Plot:

Charlie Martin, a JI whose fraternity gets kicked off campus after it takes the rap for a rival fraternity gone awry. Three years later, Charlie and the remaining brothers must throw the greatest rush event to recruit a new pledge class and bring the house back to glory.

- Written by stephenklessel
Cast:
Rebecca Dalton as Katie Dalton
Nick Bateman as 'AJ' Chesterfield
Tom Green as Dean Kravitz
Ann Pirvu as 'Becca' Henley
Justin Deeley as Charlie Martin
Jamie Johnston as Ryan Young
Jennifer Krukowski as Ashley
Jon McLaren as Zack 'Escobar' Smith
Alexander Conti as Wiv Littleton
Alex House as Billy Taylor


Watch-Free-HD     Download

Details
Name:Total.Frat.Movie.2016.1080p.WEB-DL.DD5.1.H264-FGT-[HDSector]
Description:


Video
ID                                       : 1
Format                                   : AVC
Format/Info                              : Advanced Video Codec
Format profile                           : [email protected]
Format settings, CABAC                   : Yes
Format settings, ReFrames                : 4 frames
Codec ID                                 : V_MPEG4/ISO/AVC
Duration                                 : 1h 33mn
Bit rate                                 : 5 011 Kbps
Width                                    : 1 912 pixels
Height                                   : 1 072 pixels
Display aspect ratio                     : 16:9
Frame rate mode                          : Constant
Frame rate                               : 23.976 fps
Color space                              : YUV
Chroma subsampling                       : 4:2:0
Bit depth                                : 8 bits
Scan type                                : Progressive
Bits/(Pixel*Frame)                       : 0.102
Stream size                              : 3.28 GiB (91%)
Title                                    : Total.Frat.Movie.2016.1080p.WEB-DL.DD5.1.H264-FGT
Language                                 : English
Default                                  : Yes
Forced                                   : No
Color range                              : Limited
Color primaries                          : BT.709
Transfer characteristics                 : BT.709
Matrix coefficients                      : BT.709

Audio
ID                                       : 2
Format                                   : AC-3
Format/Info                              : Audio Coding 3
Mode extension                           : CM (complete main)
Format settings, Endianness              : Big
Codec ID                                 : A_AC3
Duration                                 : 1h 33mn
Bit rate mode                            : Constant
Bit rate                                 : 384 Kbps
Channel(s)                               : 6 channels
Channel positions                        : Front: L C R, Side: L R, LFE
Sampling rate                            : 48.0 KHz
Frame rate                               : 31.250 fps (1536 spf)
Compression mode                         : Lossy
Stream size                              : 257 MiB (7%)
Title                                    : Total.Frat.Movie.2016.1080p.WEB-DL.DD5.1.H264-FGT
Language                                 : English
Default                                  : No
Forced                                   : No

Text
ID                                       : 3
Format                                   : UTF-8
Codec ID                                 : S_TEXT/UTF8
Codec ID/Info                            : UTF-8 Plain Text
Language                                 : English
Default                                  : Yes
Forced                                   : No

Menu
00:00:00.000                             : en:Chapter 1
00:13:49.788                             : en:Chapter 2
00:26:26.961                             : en:Chapter 3
00:38:16.628                             : en:Chapter 4
00:49:02.148                             : en:Chapter 5
01:00:06.519                             : en:Chapter 6
01:10:57.378                             : en:Chapter 7
01:21:07.196                             : en:Chapter 8

 http://www.hdsector.com/


           
Category:Movies > WEB-HD
Lang:English  English
Total Size:3.60 GB
Info Hash:45113b5e71508e510313ead4cf5042708cc0bb93
Added By:Unknown
Date Added:11-05-2017 10:50:52
Downloads:104

Download Torrent

Ratings:Not Yet Rated (Log in to rate it)


Tracker:
http://tracker.trackerfix.com:80/announce


File List: 


Comments

No comments still posted

Powered by 10 Hamsters v2-svn -|- Page Generated In 0.872133 secs.
-|- RSS Feed -|- Feed Info
Theme By: Nikkbu