Movie Trailer animated film | Yeni videolar Ən Son əlavə olunan Videolar | Roseanne for Pres..


Login
Username:
Password:
[Signup]
[Recover Account]


Browse Torrents

Poll


You must be logged in to view polls



Latest Torrents
This Old Machine 2...
- [Size: 747.73 MB]

Viking Destiny 201...
- [Size: 2.30 GB]

Lockdown S01 Ep1 a...
- [Size: 777.01 MB]

Mysteries.at.the.M...
- [Size: 1.30 GB]

Woman.Walks.Ahead....
- [Size: 595.67 MB]


Torrent Details For "Bakula Namdev Ghotale 2007 [Marathi] 1080p Untouched WebHD x264 AAC [TMB]"

Bakula Namdev Ghotale 2007 [Marathi] 1080p Untouched WebHD x264 AAC [TMB]

Download this torrent | Magnet Download
Health:
Seeds: 0
Leechers: 2
Completed:
Last Checked: 07-01-2018 03:37:32
External Torrent
Update Stats



Poster


iMDB
Title: Bakula Namdev Ghotale
Year: 2007
Votes: 21
Rating: 5.8/10
Language: Marathi
Country: India
All Genres: Comedy
Plot Outline: Wicked Ghotale has all the villagers under debts. Newly married Namdev brings home his pretty wife Bakula.Ghotales evil desires for Bakula.
Director: Kedar Shinde
Writing By: Kedar Shinde,Macchindra More,
Produced By: Avinash Kharshikar,Atul Maroo,Mansi Maroo,Smita Maroo,Atul Maru,Ketan Maru,Sanjay Roy,
Music: Devdutt Khandekar Devdatta Sable
Plot:

Wicked Ghotale has all the villagers under debts. Newly married Namdev brings home his pretty wife Bakula.Ghotales evil desires for Bakula.

- Written by [email protected]
Cast:
Bharat Jadhav as Ghotale
Siddharth Jadhaw as Namdeo
Vijay Chavan as
Kushal Badrike as
Sonalee Kulkarni as Bakula
Sonali Kulkarni as Bakula
Resham Tipnis as Special appearance



Details
Name:Bakula Namdev Ghotale 2007 [Marathi] 1080p Untouched WebHD x264 AAC [TMB]
Description:
General
Complete name : Bakula Namdev Ghotale 2007 1080p Untouched WebHD x264 AAC [TMB].mp4
Format : MPEG-4
Format profile : Base Media
Codec ID : isom (isom/iso2/avc1/mp41)
File size : 4.17 GiB
Duration : 2 h 10 min
Overall bit rate mode : Variable
Overall bit rate : 4 564 kb/s
Writing application : Lavf56.40.101

Video
Format : AVC
Format/Info : Advanced Video Codec
Format profile : [email protected]
Format settings, CABAC : Yes
Format settings, ReFrames : 1 frame
Format settings, GOP : M=1, N=25
Codec ID : avc1
Codec ID/Info : Advanced Video Coding
Duration : 2 h 10 min
Bit rate mode : Constant
Bit rate : 4 500 kb/s
Width : 1 920 pixels
Height : 1 080 pixels
Display aspect ratio : 16:9
Frame rate mode : Variable
Frame rate : 25.000 FPS
Minimum frame rate : 0.166 FPS
Maximum frame rate : 25.000 FPS
Color space : YUV
Chroma subsampling : 4:2:0
Bit depth : 8 bits
Scan type : Progressive
Bits/(Pixel*Frame) : 0.087
Stream size : 4.11 GiB (99%)

Audio
Format : AAC
Format/Info : Advanced Audio Codec
Format profile : LC
Codec ID : 40
Duration : 2 h 10 min
Bit rate mode : Variable
Bit rate : 61.4 kb/s
Maximum bit rate : 63.8 kb/s
Channel(s) : 2 channels
Channel positions : Front: L R
Sampling rate : 48.0 kHz
Frame rate : 46.875 FPS (1024 spf)
Compression mode : Lossy
Stream size : 57.4 MiB (1%)


Category:Movies > Bollywood
Lang:Hindi
Total Size:4.17 GB
Info Hash:6eb3267b915670b73db87417cc1cfc62dfa0b63c
Added By:Sarawan
Date Added:12-05-2017 16:28:02
Downloads:224

Ratings:Not Yet Rated (Log in to rate it)


Tracker:
udp://tracker.openbittorrent.com:80/announce


File List: 


Comments

<< Previous      Next >>
1 - 3

[Report] Posted: 30-12-2017 at 06:37:35
Montex



Team TMB PLS seed :love  :love  :love

[Report] Posted: 30-12-2017 at 16:18:13
TeamTMB



@Montex someone else shared my torrent here & he is not seeding... i will seed after 5th jan as me busy with some work & not getting time to upload movie from my home pc to server... once added to server seeding can be started... ;)

[Report] Posted: 31-12-2017 at 13:12:10
Montex



Thanks TEAM TMB Iam wating :love  :love  :)  :)

1 - 3
<< Previous      Next >>


Copyright 2018 DownloadHD -|- Page Generated In 1.251783 secs.
-|- RSS Feed -|- Feed Info