Login
Username:
Password:
[Signup]
[Recover Account]


Browse Torrents

Poll


You must be logged in to view polls



Latest Torrents
Splitting.Up.Toget...
- [Size: 155.20 MB]

This.Is.Us.S03E05....
- [Size: 254.66 MB]

Splitting.Up.Toget...
- [Size: 656.24 MB]

This.Is.Us.S03E05....
- [Size: 963.40 MB]

Black.Lightning.S0...
- [Size: 281.56 MB]


Torrent Details For "Kapoor & Sons (2016) Hindi 720p Web-HD AVC AAC Esub - Download"

Kapoor & Sons (2016) Hindi 720p Web-HD AVC AAC Esub - Download

Download this torrent | Magnet Download
Health:
Seeds: 0
Leechers: 12
Completed: 387 
Last Checked: 07-02-2018 17:46:19
External Torrent
Update Stats



Watch-Free-HD     Download
Poster


iMDB
Imdb Picture Title: Kapoor & Sons
Year: 2016
Runtime: 132 minutes
Votes: 14545
Rating: 7.8/10
Language: Hindi
Country: India
All Genres: Comedy, Drama, Romance
Plot Outline: A story revolving around a dysfunctional family of 2 brothers who visit their family and discover that their parents marriage is on the verge of collapse,the family is undergoing a financial crunch and much more as the drama unfolds.
Tagline: (Since 1921)
Director: Shakun Batra
Writing By: Shakun Batra,Ayesha DeVitre,
Produced By: Hiroo Johar,Karan Johar,Pravin Khairnar,Apoorva Mehta,
Music: Arko Badshah Tanisk Bagchi Benny Dayal Fazilpuria Amal Mallik Nucleya Sameer Uddin
Plot:

A story revolving around a dysfunctional family of 2 brothers who visit their family and discover that their parents marriage is on the verge of collapse,the family is undergoing a financial crunch and much more as the drama unfolds.


Cast:
Sidharth Malhotra as Arjun Kapoor
Fawad Khan as Rahul Kapoor
Alia Bhatt as Tia Malik
Rajat Kapoor as Harsh Kapoor - Dad
Rishi Kapoor as Amarjeet Kapoor
Anahita Oberoi as Neetu Chachi
Vikram Kapadia as Shashi Chacha
Anuradha Chandan as Anu Aunty
Pradeep Pradhan as Kishore (Tia's Cook)
Fahim Shaikh as Boobly


Watch-Free-HD     Download

Details
Name:Kapoor & Sons (2016) Hindi 720p Web-HD AVC AAC Esub - Download
Description:
Kapoor & Sons (2016) Hindi 720p Web-HD AVC AAC Esub - Download

Format                                   : Matroska
Format version                           : Version 4 / Version 2
File size                                : 3.05 GiB
Duration                                 : 2 h 17 min
Overall bit rate                         : 3 174 kb/s
Movie name                               : DownloadHD
Encoded date                             : UTC 2017-05-18 15:22:25
Writing application                      : mkvmerge v9.4.2 ('So High') 64bit
Writing library                          : libebml v1.3.4 + libmatroska v1.4.5

Video
ID                                       : 1
Format                                   : AVC
Format/Info                              : Advanced Video Codec
Format profile                           : [email protected]
Format settings, CABAC                   : Yes
Format settings, ReFrames                : 4 frames
Codec ID                                 : V_MPEG4/ISO/AVC
Duration                                 : 2 h 17 min
Bit rate                                 : 3 014 kb/s
Width                                    : 1 280 pixels
Height                                   : 720 pixels
Display aspect ratio                     : 16:9
Frame rate mode                          : Constant
Frame rate                               : 24.000 FPS
Color space                              : YUV
Chroma subsampling                       : 4:2:0
Bit depth                                : 8 bits
Scan type                                : Progressive
Bits/(Pixel*Frame)                       : 0.136
Stream size                              : 2.86 GiB (94%)
Writing library                          : x264 core 133 r2 a3ac64b
Encoding settings                        : cabac=1 / ref=3 / deblock=1:0:0 / analyse=0x3:0x113 / me=hex / subme=7 / psy=1 / psy_rd=1.00:0.00 / mixed_ref=1 / me_range=16 / chroma_me=1 / trellis=1 / 8x8dct=1 / cqm=0 / deadzone=21,11 / fast_pskip=1 / chroma_qp_offset=-2 / threads=12 / lookahead_threads=2 / sliced_threads=0 / nr=0 / decimate=1 / interlaced=0 / bluray_compat=0 / constrained_intra=0 / bframes=3 / b_pyramid=2 / b_adapt=1 / b_bias=0 / direct=1 / weightb=1 / open_gop=0 / weightp=2 / keyint=30 / keyint_min=3 / scenecut=40 / intra_refresh=0 / rc_lookahead=30 / rc=abr / mbtree=1 / bitrate=3014 / ratetol=1.0 / qcomp=0.60 / qpmin=0 / qpmax=69 / qpstep=4 / ip_ratio=1.40 / aq=1:1.00
Default                                  : Yes
Forced                                   : No

Audio
ID                                       : 2
Format                                   : AAC
Format/Info                              : Advanced Audio Codec
Format profile                           : LC
Codec ID                                 : A_AAC
Duration                                 : 2 h 17 min
Bit rate                                 : 192 kb/s
Channel(s)                               : 2 channels
Channel positions                        : Front: L R
Sampling rate                            : 48.0 kHz
Frame rate                               : 46.875 FPS (1024 spf)
Compression mode                         : Lossy
Delay relative to video                  : -43 ms
Stream size                              : 191 MiB (6%)
Language                                 : Hindi
Default                                  : Yes
Forced                                   : No

 
Category:Movies > Bollywood
Lang:Hindi
Total Size:3.05 GB
Info Hash:540588914427302688efeaa934409efdd785ae28
Added By:Unknown
Date Added:18-05-2017 18:23:20
Downloads:265

Ratings:Not Yet Rated (Log in to rate it)


Tracker:
udp://tracker.coppersurfer.tk:6969/announce


File List: 


Comments

<< Previous      Next >>
1 - 1

[Report] Posted: 20-05-2017 at 22:46:34
kiranThange



How to download



1 - 1
<< Previous      Next >>


Top
Copyright 2018 DownloadHD -|- Page Generated In 1.946213 secs.
-|- RSS Feed -|- Feed Info