Login
Username:
Password:
[Signup]
[Recover Account]


Browse Torrents

Poll


You must be logged in to view polls



Latest Torrents
The.Last.Alaskans....
- [Size: 466.63 MB]

The.Cool.Kids.S01E...
- [Size: 1.61 GB]

They.Shall.Not.Gro...
- [Size: 7.66 GB]

Pledges (2018) WEB...
- [Size: 684.73 MB]

The.Pioneer.Woman....
- [Size: 175.92 MB]


Torrent Details For "Nightmare - Bengali Short Film - 1CD - HD Rip[Xvid - Mp3]"

Nightmare - Bengali Short Film - 1CD - HD Rip[Xvid - Mp3]

Download this torrent | Magnet Download
Health:
Seeds: 0
Leechers: 0
Completed:
Last Checked: 13-12-2018 15:23:59
External Torrent
Update Stats



Images Host

Poster


Watch-Free-HD     Download

Details
Name:Nightmare - Bengali Short Film - 1CD - HD Rip[Xvid - Mp3]
Description:
  Nightmare - Bengali Short Film - 1CD -
HD Rip[Xvid - Mp3]
 





[code]
General
Format                                   : AVI
Format/Info                              : Audio Video Interleave
File size                                : 703 MiB
Duration                                 : 30 min 18 s

Video
ID                                       : 0
Format                                   : MPEG-4 Visual
Format profile                           : Advanced [email protected]
Format settings, BVOP                    : 1
Format settings, QPel                    : No
Format settings, GMC                     : No warppoints
Format settings, Matrix                  : Default (H.263)
Codec ID                                 : XVID
Codec ID/Hint                            : XviD
Duration                                 : 30 min 18 s
Bit rate                                 : 3 108 kb/s
Width                                    : 720 pixels
Height                                   : 320 pixels
Display aspect ratio                     : 2.25:1
Frame rate                               : 25.000 FPS
Color space                              : YUV
Chroma subsampling                       : 4:2:0
Bit depth                                : 8 bits
Scan type                                : Progressive
Compression mode                         : Lossy
Bits/(Pixel*Frame)                       : 0.540
Stream size                              : 674 MiB (96%)

Audio
ID                                       : 1
Format                                   : MPEG Audio
Format version                           : Version 1
Format profile                           : Layer 3
Mode                                     : Joint stereo
Mode extension                           : MS Stereo
Codec ID                                 : 55
Codec ID/Hint                            : MP3
Duration                                 : 30 min 18 s
Bit rate mode                            : Constant
Bit rate                                 : 128 kb/s
Channel(s)                               : 2 channels
Sampling rate                            : 48.0 kHz
Compression mode                         : Lossy
Stream size                              : 27.7 MiB (4%)

[/code]

[video=http://www.youtube.com/watch?v=T03gm67OmOs]

Thumbnail





Category:Movies > Bengali
Lang:Bengali  Bengali
Total Size:702.70 MB
Info Hash:ba0f98f085d77233455c728e3f8aa9818f22ff9b
Added By:Pherarim
Date Added:27-05-2017 20:23:12
Downloads:585

Ratings:Not Yet Rated (Log in to rate it)


Tracker:
udp://tracker.coppersurfer.tk:6969/announce


File List: 


Comments

No comments still posted

Top
Copyright 2018 DownloadHD -|- Page Generated In 1.053577 secs.
-|- RSS Feed -|- Feed Info
Eps19 Ridiculousness 12 | Suicide Squad | Temporada 1