Tomb Raider (2018) 720p BluRay DTS X264-iFT | J. Farrell MacDonald | Shuumatsu no Izetta


Login
Username:
Password:
[Signup]
[Recover Account]


Browse Torrents

Poll


You must be logged in to view polls



Latest Torrents
The.Opposition.wit...
- [Size: 277.48 MB]

Jurassic World Fal...
- [Size: 1.37 GB]

The.Daily.Show.201...
- [Size: 273.06 MB]

The.Expanse.S03E11...
- [Size: 856.86 MB]

The.Expanse.S03E11...
- [Size: 270.78 MB]


Torrent Details For "Kuch Tum Kaho Kuch Hum Kahein (2002) 720P DVDRIP {{Dr Sakismit}}"

Kuch Tum Kaho Kuch Hum Kahein (2002) 720P DVDRIP {{Dr Sakismit}}

Download this torrent | Magnet Download
Health:
Seeds: 0
Leechers: 9
Completed:
Last Checked: 23-08-2017 06:29:44
External Torrent
Update Stats


Watch-Free-HD     Download

Poster


iMDB
Imdb Picture Title: Kuch Tum Kaho Kuch Hum Kahein
Year: 2002
Runtime: 171 minutes
Votes: 397
Rating: 5.6/10
Language: Hindi
Country: India
All Genres: Action, Drama, Romance
Plot Outline: Two feuding neighboring families are brought together to celebrate the wedding anniversary of Vishnupratap Singh (Vikram Gokhale) and his wife (Farida Jalal), much to the dislike of Rudra ...
Director: K. Ravi Shankar

Produced By: D. Rama Naidu,
Music: Anu Malik
Plot:

Two feuding neighboring families are brought together to celebrate the wedding anniversary of Vishnupratap Singh (Vikram Gokhale) and his wife (Farida Jalal), much to the dislike of Rudra Pratap (Sharad Kapoor). During this get together Abhayendra Singh (Fardeen Khan) falls in love with Mangala Solanki (Richa Pallod). Abhayendra comes to know of the background of the two families' feud, and makes attempts to reconcile the two families - with disasterous results.

- Written by rAjOo ([email protected])
Cast:
Vikram Gokhale as Vishnupratap Singh
Dinesh Hingoo as Vakil Shivprasad
Adi Irani as
Farida Jalal as Vishnupratap's wife
Suhani Kalita as
Sharad S. Kapoor as Rudrapratap Singh
Fardeen Khan as Abhayendra Singh
Feroz Khan as Himself (a scene from a movie)
Nina Kulkarni as Sunanda Singh
Govind Namdeo as Virendrapratap Singh


Watch-Free-HD     Download

Details
Name:Kuch Tum Kaho Kuch Hum Kahein (2002) 720P DVDRIP {{Dr Sakismit}}
Description:
Kuch Tum Kaho Kuch Hum Kahein (2002)


Two feuding neighboring families are brought together to celebrate the wedding anniversary of Vishnupratap Singh (Vikram Gokhale) and his wife (Farida Jalal), much to the dislike of Rudra Pratap (Sharad Kapoor). During this get together Abhayendra Singh (Fardeen Khan) falls in love with Mangala Solanki (Richa Pallod). Abhayendra comes to know of the background of the two families' feud, and makes attempts to reconcile the two families - with disasterous results.


General
Complete name                            : D:\hp1020\English\Crack\Kuch Tum Kaho Kuch Hum Kahein (2002) 720P DVDRIP {{Dr_Sakismit}}.mkv
Format                                   : Matroska
Format version                           : Version 4 / Version 2
File size                                : 1.67 GiB
Duration                                 : 2 h 51 min
Overall bit rate                         : 1 393 kb/s
Movie name                               : Kuch Tum Kaho Kuch Hum Kahein (2002) 720P DVDRIP {{Dr_Sakismit}}

Video
ID                                       : 1
Format                                   : AVC
Format/Info                              : Advanced Video Codec
Format profile                           : [email protected]
Format settings, CABAC                   : Yes
Format settings, ReFrames                : 3 frames
Codec ID                                 : V_MPEG4/ISO/AVC
Duration                                 : 2 h 51 min
Bit rate                                 : 1 266 kb/s
Width                                    : 1 280 pixels
Height                                   : 720 pixels
Display aspect ratio                     : 16:9
Frame rate mode                          : Constant
Frame rate                               : 25.000 FPS
Color space                              : YUV
Chroma subsampling                       : 4:2:0
Bit depth                                : 8 bits
Scan type                                : Progressive
Bits/(Pixel*Frame)                       : 0.055
Stream size                              : 1.52 GiB (91%)
Title                                    : Kuch Tum Kaho Kuch Hum Kahein (2002) 720P DVDRIP {{Dr_Sakismit}}
Default                                  : Yes
Forced                                   : No

Audio
ID                                       : 2
Format                                   : AAC
Format/Info                              : Advanced Audio Codec
Format profile                           : LC
Codec ID                                 : A_AAC
Duration                                 : 2 h 51 min
Bit rate                                 : 126 kb/s
Channel(s)                               : 2 channels
Channel positions                        : Front: L R
Sampling rate                            : 44.1 kHz
Frame rate                               : 43.066 FPS (1024 spf)
Compression mode                         : Lossy
Stream size                              : 154 MiB (9%)
Language                                 : Hindi
Default                                  : Yes
Forced                                   : No


Just 1 valuable Comment
Wish will be Come True :)

Category:Movies > Bollywood
Lang:Hindi
Total Size:1.67 GB
Info Hash:0541aea3ccef6043be9ebab09f2a1d97d19b4b7e
Added By:Drsakismit
Date Added:28-05-2017 09:41:13
Downloads:429

Download Torrent

Ratings:Not Yet Rated (Log in to rate it)

  


Tracker:
udp://tracker.openbittorrent.com:80/announce


File List: 


Comments

No comments still posted

Powered by 10 Hamsters v2-svn -|- Page Generated In 0.246044 secs.
-|- RSS Feed -|- Feed Info
Theme By: Nikkbu