59 Seconds | Blinky Bill | Artur Zmijewski


Login
Username:
Password:
[Signup]
[Recover Account]


Browse Torrents

Poll


You must be logged in to view polls



Latest Torrents
A Taste of Phobia....
- [Size: 888.03 MB]

Quantico.S03E07.HD...
- [Size: 286.65 MB]

Quantico.S03E07.72...
- [Size: 1.11 GB]

Phamous 2018 Hindi...
- [Size: 1.16 GB]

12.Monkeys.S04E05....
- [Size: 197.15 MB]


Torrent Details For "Kismat Konnection (2008) Hindi (Music Video) Bluray 720p X264 AC3.5.1...Team Jio"

Kismat Konnection (2008) Hindi (Music Video) Bluray 720p X264 AC3.5.1...Team Jio

Download this torrent | Magnet Download
Health:
Seeds: 10
Leechers: 0
Completed: 279 
Last Checked: 13-06-2018 12:45:34
External Torrent
Update Stats


Watch-Free-HD     Download

Poster


iMDB
Imdb Picture Title: Kismat Konnection
Year: 2008
Runtime: 153 minutes
Votes: 4379
Rating: 5.2/10
Language: Hindi
Country: India
All Genres: Comedy, Drama, Romance
Plot Outline: A luckless architect discovers a social activist to be his lucky charm. Unfortunately, she's protecting the community center he's aiming to win a contract to tear down.
Director: Aziz Mirza
Writing By: Sanjay Chhel,Sai Kabir,Ashish Kariya,Rahila Mirza,Vibha Singh,
Produced By: Dilip Advani,Ganesh Nankoosingh,Ramesh Sadhuram Taurani,
Music: Pritam Chakraborty Sanjoy Chowdhury
Cast:
Shahid Kapoor as Raj Malhotra
Vidya Balan as Priya
Vishal Malhotra as Hiten Patel
Om Puri as Sanjeev 'Harry' Gill
Himani Shivpuri as Manpreet Gill
Haidar Ali as Mr. Bakshi
Shehnaz Anand as Aditi
Juhi Chawla as Haseena Bano Jaan
Karanvir Bohra as Dev Kataria
Amit Varma as Karan Behl


Watch-Free-HD     Download

Details
Name:Kismat Konnection (2008) Hindi (Music Video) Bluray 720p X264 AC3.5.1...Team Jio
Description:
Kismat Konnection (2008) Hindi (Music Video) Bluray 720p X264 AC3.5.1...Team Jio



Music Video Tracklist:



Media Information:



Format                      : Matroska
Format version              : Version 4 / Version 2
File size                   : 77.2 MiB
Duration                    : 4 min 45 s
Overall bit rate            : 2 270 kb/s


Video
ID                          : 1
Format                      : AVC
Format/Info                 : Advanced Video Codec
Format profile              : [email protected]
Format settings             : CABAC / 8 Ref Frames
Format settings, CABAC      : Yes
Format settings, ReFrames   : 8 frames
Codec ID                    : V_MPEG4/ISO/AVC
Duration                    : 4 min 42 s
Bit rate                    : 2 065 kb/s
Width                       : 1 280 pixels
Height                      : 544 pixels
Display aspect ratio        : 2.35:1
Frame rate mode             : Constant
Frame rate                  : 24.000 FPS
Color space                 : YUV
Chroma subsampling          : 4:2:0
Bit depth                   : 8 bits
Scan type                   : Progressive
Bits/(Pixel*Frame)          : 0.124
Stream size                 : 69.6 MiB (90%)
Language                    : English
Default                     : No
Forced                      : No

Audio
ID                          : 2
Format                      : AC-3
Format/Info                 : Audio Coding 3
Codec ID                    : A_AC3
Duration                    : 4 min 42 s
Bit rate mode               : Constant
Bit rate                    : 224 kb/s
Channel(s)                  : 6 channels
Channel positions           : Front: L C R, Side: L R, LFE
Sampling rate               : 48.0 kHz
Frame rate                  : 31.250 FPS (1536 SPF)
Bit depth                   : 16 bits
Compression mode            : Lossy
Delay relative to video     : 13 ms
Stream size                 : 7.55 MiB (10%)
Language                    : Hindi
Service kind                : Complete Main
Default                     : Yes
Forced                      : No



Screenshot:


                       

I am on FaceBook, Post Your suggestion, and find upcoming Releases at FB Page so keep in touch !!!

 

Note : Please try to seed as much as you can since "sharing brings joy" !
Category:Music > Videos
Lang:Hindi
Total Size:433.24 MB
Info Hash:4539c68f9831467802d447544fcd149b4bbb5c5f
Added By:RSY007
Date Added:23-01-2018 18:37:27
Downloads:552

Download Torrent

Ratings:Not Yet Rated (Log in to rate it)


Tracker:
udp://9.rarbg.com:2710/announce

This Torrent also has backup trackers
URLSeedersLeechersCompleted
http://exodus.desync.com:6969/announce000
http://fr33dom.h33t.com:3310/announce000


File List: 


Comments

<< Previous      Next >>
1 - 1

[Report] Posted: 25-01-2018 at 07:42:05
awais11100



Uploaded: 0.00 B
Downloaded: 0.00 B
Ratio: ---

thanks

1 - 1
<< Previous      Next >>


Powered by 10 Hamsters v2-svn -|- Page Generated In 1.855711 secs.
-|- RSS Feed -|- Feed Info
Theme By: Nikkbu