Login
Username:
Password:
[Signup]
[Recover Account]


Browse Torrents

Poll


You must be logged in to view polls



Latest Torrents
Ray.Donovan.S06E08...
- [Size: 802.67 MB]

Andhahun 2018 x264...
- [Size: 783.62 MB]

Outlander.S04E07.1...
- [Size: 2.86 GB]

Outlander.S04E07.W...
- [Size: 499.52 MB]

Outlander.S04E07.7...
- [Size: 1.07 GB]


Torrent Details For "Company (2002) Hindi 720p DvDRip x264 AAC.-.link2download"

Company (2002) Hindi 720p DvDRip x264 AAC.-.link2download

Download this torrent | Magnet Download
Health:
Seeds: 0
Leechers: 2
Completed:
Last Checked: 09-12-2018 20:45:43
External Torrent
Update Stats



Images Host

Poster


iMDB
Imdb Picture Title: Company
Year: 2002
Runtime: 155 minutes
Votes: 10876
Rating: 8.0/10
Language: Hindi
Country: India
All Genres: Action, Crime, Drama, Thriller
Plot Outline: A small-time gangster named Chandu teams up with Malik, a low-level enforcer for a criminal syndicate. Together they eliminate all their enemies, becoming the most feared gangsters in Mumbai.
Tagline: A law & order enterprise
Director: Ram Gopal Varma
Writing By: Jaideep Sahni,
Produced By: C. Ashwini Dutt,Boney Kapoor,P. Som Shekar,Ram Gopal Varma,
Music: Sandeep Chowta
Plot:

Mallik is a henchman of Aslam Bhai, a Mumbai underworld kingpin. He inducts local hothead Chandu into the gang, and the two of them soon form a formidable faction within the gang, eventually displacing Aslam. As the empire grows, however, the two of them start drifting apart.

- Written by Joyojeet Pal

Under the leadership of underworld Don Aslam Bhai (Madan Joshi) flourishes a criminal empire in Bombay. His close associates are Mallik (Ajay Devgan) and Chandrakant alias Chandu (Vivek Oberoi). Awaiting the right opportunity, Mallik and Chandu take over from Aslam, and become the two heads of his criminal empire. Times change, and the two also decide to change with the times, and legitimize their empire to a very large extent and call it "Company". Differences arise between easy-going & emotional Chandu and the technical & matter of fact Mallik. A lot of missundersatandings develop between once very good friends, Chandu loses ground and face. He decides to take matters in his own hand & set things right. He breaks away from the gang, and as a result a war results between those loyal to him on one side, and those loyal to Mallik, on the other. Mallik's forces prove to be stronger, Chandu must decide if he compromise with Mallik or go on the right path.

- Written by rAjOo ([email protected])

A small-time gangster named Chandu teams up with Malik, a low-level enforcer for a criminal syndicate. Together they eliminate all their enemies, becoming the most feared gangsters in Mumbai.

- Written by Akshay
Cast:
Ajay Devgn as Mallik
Mohanlal as Srinivasan
Manisha Koirala as Saroja
Seema Biswas as Ranibai
Vivek Oberoi as Chandrakant (Chandu)
Antara Mali as Kannu
Akash Khurana as Vilas Pandit
Madan Joshi as Aslam bhai
Bharat Dabholkar as Home Minister Rahute
Ganesh Yadav as Yadav


Watch-Free-HD     Download

Details
Name:Company (2002) Hindi 720p DvDRip x264 AAC.-.link2download
Description:
Format                                   : Matroska
Format version                           : Version 4 / Version 2
File size                                : 1.00 GiB
Duration                                 : 2 h 34 min
Overall bit rate                         : 929 kb/s
Encoded date                             : UTC 2017-03-23 20:07:00
Writing application                      : mkvmerge v8.2.0 ('World of Adventure') 64bit
Writing library                          : libebml v1.3.1 + libmatroska v1.4.2

Video
ID                                       : 1
Format                                   : AVC
Format/Info                              : Advanced Video Codec
Format profile                           : [email protected]
Format settings, CABAC                   : Yes
Format settings, ReFrames                : 4 frames
Codec ID                                 : V_MPEG4/ISO/AVC
Duration                                 : 2 h 34 min
Bit rate                                 : 863 kb/s
Width                                    : 1 280 pixels
Height                                   : 544 pixels
Display aspect ratio                     : 2.35:1
Frame rate mode                          : Constant
Frame rate                               : 23.976 (24000/1001) FPS
Color space                              : YUV
Chroma subsampling                       : 4:2:0
Bit depth                                : 8 bits
Scan type                                : Progressive
Bits/(Pixel*Frame)                       : 0.052
Stream size                              : 956 MiB (93%)
Writing library                          : x264 core 120 r2164 da19765
Language                                 : English
Default                                  : Yes
Forced                                   : No

Audio
ID                                       : 2
Format                                   : AC-3
Format/Info                              : Audio Coding 3
Format settings, Endianness              : Big
Codec ID                                 : A_AC3
Duration                                 : 2 h 34 min
Bit rate mode                            : Constant
Bit rate                                 : 64.0 kb/s
Channel(s)                               : 2 channels
Channel positions                        : Front: L R
Sampling rate                            : 48.0 kHz
Frame rate                               : 31.250 FPS (1536 spf)
Bit depth                                : 16 bits
Compression mode                         : Lossy
Stream size                              : 70.9 MiB (7%)
Service kind                             : Complete Main
Default                                  : Yes
Forced                                   : No




 




Category:Movies > Bollywood
Lang:Hindi
Total Size:1.00 GB
Info Hash:cf28477f2915466b2caaf8515ea3823b23b76269
Added By:link2download
Date Added:29-05-2017 17:42:51
Downloads:582

Ratings:Not Yet Rated (Log in to rate it)


Tracker:
udp://tracker.openbittorrent.com:80/announce


File List: 


Comments

No comments still posted

Top
Copyright 2018 DownloadHD -|- Page Generated In 0.231403 secs.
-|- RSS Feed -|- Feed Info
La nouvelle société du coût marginal zéro | Speed Grapher | Inscription