Login
Username:
Password:
[Signup]
[Recover Account]


Browse Torrents

Poll


You must be logged in to view polls



Latest Torrents
Thor 2011 x264 720...
- [Size: 866.70 MB]

The Black Prince 2...
- [Size: 567.01 MB]

WWE.RAW.2018.10.15...
- [Size: 1.11 GB]

Manifest.S01E04.HD...
- [Size: 238.98 MB]

Manifest.S01E04.72...
- [Size: 817.48 MB]


Torrent Details For "Anaconda (1997) BluRay 1080p x264 Dual Audio [Hindi-English] DD 5.1 MSubs...Download"

Anaconda (1997) BluRay 1080p x264 Dual Audio [Hindi-English] DD 5.1 MSubs...Download

Download this torrent | Magnet Download
Health:
Seeds: 19
Leechers: 18
Completed: 580 
Last Checked: 05-09-2018 08:56:12
External Torrent
Update Stats



Poster



Details
Name:Anaconda (1997) BluRay 1080p x264 Dual Audio [Hindi-English] DD 5.1 MSubs...Download
Description:





Anaconda (1997) BluRay 1080p x264 Dual Audio [Hindi-English] DD 5.1 MSubs...Download

General
Format                                   : Matroska
Format version                           : Version 4 / Version 2
File size                                : 4.24 GiB
Duration                                 : 1 h 29 min
Overall bit rate                         : 6 797 kb/s
Movie name                               : [email protected]

Video
Format                                   : AVC
Format/Info                              : Advanced Video Codec
Format profile                           : [email protected]
Format settings, CABAC                   : Yes
Format settings, ReFrames                : 5 frames
Codec ID                                 : V_MPEG4/ISO/AVC
Duration                                 : 1 h 29 min
Bit rate                                 : 5 885 kb/s
Width                                    : 1 920 pixels
Height                                   : 800 pixels
Display aspect ratio                     : 2.40:1
Frame rate mode                          : Constant
Frame rate                               : 23.976 (24000/1001) FPS
Color space                              : YUV
Chroma subsampling                       : 4:2:0
Bit depth                                : 8 bits
Scan type                                : Progressive
Bits/(Pixel*Frame)                       : 0.160
Stream size                              : 3.67 GiB (87%)
Title                                    : [email protected]

Audio 1
Format                                   : AC-3
Format/Info                              : Audio Coding 3
Format settings, Endianness              : Big
Codec ID                                 : A_AC3
Duration                                 : 1 h 29 min
Bit rate mode                            : Constant
Bit rate                                 : 448 kb/s
Channel(s)                               : 6 channels
Channel positions                        : Front: L C R, Side: L R, LFE
Sampling rate                            : 48.0 kHz
Frame rate                               : 31.250 FPS (1536 spf)
Bit depth                                : 16 bits
Compression mode                         : Lossy
Delay relative to video                  : 2 s 790 ms
Stream size                              : 286 MiB (7%)
Title                                    : [email protected]
Language                                 : Hindi
Service kind                             : Complete Main
Default                                  : Yes
Forced                                   : Yes

Audio 2
Format                                   : AC-3
Format/Info                              : Audio Coding 3
Format settings, Endianness              : Big
Codec ID                                 : A_AC3
Duration                                 : 1 h 29 min
Bit rate mode                            : Constant
Bit rate                                 : 448 kb/s
Channel(s)                               : 6 channels
Channel positions                        : Front: L C R, Side: L R, LFE
Sampling rate                            : 48.0 kHz
Frame rate                               : 31.250 FPS (1536 spf)
Bit depth                                : 16 bits
Compression mode                         : Lossy
Stream size                              : 286 MiB (7%)
Title                                    : [email protected]
Service kind                             : Complete Main
Default                                  : No
Forced                                   : No

Subtitle 1
Format                                   : PGS
Muxing mode                              : zlib
Codec ID                                 : S_HDMV/PGS
Codec ID/Info                            : Picture based subtitle format used on BDs/HD-DVDs
Duration                                 : 1 h 24 min
Bit rate                                 : 7 553 b/s
Count of elements                        : 1402
Stream size                              : 4.56 MiB (0%)
Title                                    : [email protected]
Default                                  : Yes

Subtitle 2
Format                                   : PGS
Muxing mode                              : zlib
Codec ID                                 : S_HDMV/PGS
Codec ID/Info                            : Picture based subtitle format used on BDs/HD-DVDs
Duration                                 : 1 h 22 min
Bit rate                                 : 9 035 b/s
Count of elements                        : 1432
Stream size                              : 5.32 MiB (0%)
Title                                    : [email protected]
Default                                  : No

SubTitle SRT Format Included

Chapter Menu
00:00:00.000                             : en:00:00:00.000
00:04:32.898                             : en:00:04:32.898
00:11:48.166                             : en:00:11:48.166
00:19:30.795                             : en:00:19:30.795
00:25:17.516                             : en:00:25:17.516
00:30:51.767                             : en:00:30:51.767
00:37:24.451                             : en:00:37:24.451
00:39:08.179                             : en:00:39:08.179
00:49:12.783                             : en:00:49:12.783
00:54:21.341                             : en:00:54:21.341
00:59:44.331                             : en:00:59:44.331
01:04:41.628                             : en:01:04:41.628
01:11:22.737                             : en:01:11:22.737
01:15:52.548                             : en:01:15:52.548
01:19:48.450                             : en:01:19:48.450
01:22:53.343                             : en:01:22:53.343

                     
Category:Movies > Hollywood Dub
Lang:Hindi
Total Size:4.28 GB
Info Hash:17198525df01285ae39db2589199607cd35692f2
Added By:Unknown
Date Added:27-03-2017 13:41:33
Downloads:575

Ratings:Not Yet Rated (Log in to rate it)


Tracker:
udp://tracker.coppersurfer.tk:6969/announce


File List: 


Comments

<< Previous      Next >>
1 - 2

[Report] Posted: 27-03-2017 at 21:25:55
Rajakhan



Thanks For Beautiful sharing Download

[Report] Posted: 28-03-2017 at 00:26:24
Amine



Nice upload thanks  :love
Any version for Arundhati 2009 telegu Download

1 - 2
<< Previous      Next >>


Top
Copyright 2018 DownloadHD -|- Page Generated In 2.625025 secs.
-|- RSS Feed -|- Feed Info