Login
Username:
Password:
[Signup]
[Recover Account]


Browse Torrents

Poll


You must be logged in to view polls



Latest Torrents
60.Minutes.S51E04....
- [Size: 690.12 MB]

Monsters.At.Large....
- [Size: 660.42 MB]

Rel.S01E05.WEB.x26...
- [Size: 175.04 MB]

Alaska.The.Last.Fr...
- [Size: 1.40 GB]

Expedition.Unknown...
- [Size: 937.47 MB]


Torrent Details For "Dragon Ball Super (Season 1-4) English Subbed Team Jio Exclusive"

Dragon Ball Super (Season 1-4) English Subbed Team Jio Exclusive

Download this torrent | Magnet Download
Health:
Seeds: 2
Leechers: 0
Completed:
Last Checked: 24-09-2018 14:11:00
External Torrent
Update Stats



Watch-Free-HD     Download
Poster


Watch-Free-HD     Download

Details
Name:Dragon Ball Super (Season 1-4) English Subbed Team Jio Exclusive
Description:




Quote:

Format                                   : MPEG-4
Format profile                           : Base Media / Version 2
Codec ID                                 : mp42 (mp42/isom/avc1)
File size                                : 121 MiB
Duration                                 : 23 min 24 s
Overall bit rate mode                    : Variable
Overall bit rate                         : 720 kb/s
Encoded date                             : UTC 2015-08-09 16:53:45
Tagged date                              : UTC 2015-08-09 16:57:44
Writing application                      : HandBrake 0.9.9 2013051800

Video
ID                                       : 1
Format                                   : AVC
Format/Info                              : Advanced Video Codec
Format profile                           : [email protected]
Format settings                          : CABAC / 5 Ref Frames
Format settings, CABAC                   : Yes
Format settings, RefFrames               : 5 frames
Codec ID                                 : avc1
Codec ID/Info                            : Advanced Video Coding
Duration                                 : 23 min 24 s
Bit rate                                 : 587 kb/s
Width                                    : 1 280 pixels
Height                                   : 720 pixels
Display aspect ratio                     : 16:9
Frame rate mode                          : Variable
Frame rate                               : 23.976 (24000/1001) FPS
Minimum frame rate                       : 23.974 FPS
Maximum frame rate                       : 23.981 FPS
Color space                              : YUV
Chroma subsampling                       : 4:2:0
Bit depth                                : 8 bits
Scan type                                : Progressive
Bits/(Pixel*Frame)                       : 0.027
Stream size                              : 98.3 MiB (82%)
Writing library                          : x264 core 130 r2273 b3065e6
Encoding settings                        : cabac=1 / ref=5 / deblock=1:1:1 / analyse=0x3:0x113 / me=hex / subme=2 / psy=1 / psy_rd=0.40:0.00 / mixed_ref=0 / me_range=16 / chroma_me=1 / trellis=0 / 8x8dct=1 / cqm=0 / deadzone=21,11 / fast_pskip=1 / chroma_qp_offset=0 / threads=18 / lookahead_threads=5 / sliced_threads=0 / nr=0 / decimate=1 / interlaced=0 / bluray_compat=0 / constrained_intra=0 / bframes=5 / b_pyramid=2 / b_adapt=1 / b_bias=0 / direct=1 / weightb=1 / open_gop=0 / weightp=1 / keyint=240 / keyint_min=24 / scenecut=40 / intra_refresh=0 / rc_lookahead=10 / rc=crf / mbtree=1 / crf=26.0 / qcomp=0.60 / qpmin=0 / qpmax=69 / qpstep=4 / vbv_maxrate=17500 / vbv_bufsize=17500 / crf_max=0.0 / nal_hrd=none / ip_ratio=1.40 / aq=1:0.60
Encoded date                             : UTC 2015-08-09 16:53:45
Tagged date                              : UTC 2015-08-09 16:57:44
Color range                              : Limited
Color primaries                          : BT.709
Transfer characteristics                 : BT.709
Matrix coefficients                      : BT.709

Audio
ID                                       : 2
Format                                   : AAC
Format/Info                              : Advanced Audio Codec
Format profile                           : LC
Codec ID                                 : mp4a-40-2
Duration                                 : 23 min 24 s
Bit rate mode                            : Variable
Bit rate                                 : 128 kb/s
Maximum bit rate                         : 272 kb/s
Channel(s)                               : 2 channels
Channel positions                        : Front: L R
Sampling rate                            : 48.0 kHz
Frame rate                               : 46.875 FPS (1024 SPF)
Compression mode                         : Lossy
Stream size                              : 21.4 MiB (18%)
Title                                    : Stereo
Encoded date                             : UTC 2015-08-09 16:53:45
Tagged date                              : UTC 2015-08-09 16:57:42

 
 
 
 
 
 
 
Category:Other > Animation
Lang:Japanese  Japanese
Total Size:10.63 GB
Info Hash:9a8f7f9e8db57e934d3f7102f14f5fa3149b7f30
Added By:TeamJio
Date Added:03-03-2018 16:38:40
Downloads:301

Ratings:Not Yet Rated (Log in to rate it)


Tracker:
http://jiotorrents.net/announce.php?pk=a5b7d3d9ebc87c84db8da7561fde639d520d476d


File List: 


Comments

No comments still posted

Top
Copyright 2018 DownloadHD -|- Page Generated In 2.773127 secs.
-|- RSS Feed -|- Feed Info