Login
Username:
Password:
[Signup]
[Recover Account]


Browse Torrents

Poll


You must be logged in to view polls



Latest Torrents
The.Goldbergs.2013...
- [Size: 625.40 MB]

The.Goldbergs.2013...
- [Size: 149.15 MB]

Chicago.Med.S04E12...
- [Size: 670.84 MB]

Chicago.Med.S04E12...
- [Size: 667.91 MB]

Sanju.(2018).720p....
- [Size: 1.27 GB]


Torrent Details For "Rock On 2 (2016) [Hindi] 720p Untouched Web-HD AVC AAC Msub - DownloadHD"

Rock On 2 (2016) [Hindi] 720p Untouched Web-HD AVC AAC Msub - DownloadHD

Download this torrent | Magnet Download
Health:
Seeds: 0
Leechers: 0
Completed:
Last Checked: 24-11-2018 04:19:44
External Torrent
Update Stats



Images Host

Poster


iMDB
Imdb Picture Title: Rock On 2
Year: 2016
Runtime: 143 minutes
Votes: 1271
Rating: 5.0/10
Language: Hindi
Country: India
All Genres: Drama, Music
Plot Outline: The band, Magik reunites with some new members.
Tagline: Every generation finds its voice.
Director: Shujaat Saudagar
Writing By: Abhishek Kapoor,Pubali Chaudhuri,Pubali Chaudhuri,Farhan Akhtar,
Produced By: Farhan Akhtar,Vikesh Bhutani,Ashit Ghelani,Arif Mir,Ritesh Sidhwani,
Music: Shankar Mahadevan Loy Mendonsa Ehsaan Noorani
Plot:

The band, Magik reunites with some new members.


Cast:
Farhan Akhtar as Aditya Shroff
Shraddha Kapoor as Jiah Sharma
Arjun Rampal as Joseph Mascarenhas
Purab Kohli as Kedar Zaveri / KD
Prachi Desai as Sakshi Shroff
Shashank Arora as Uday
Shahana Goswami as Debbie Mascarenhas
Vishal Dadlani as
Manka Kaur as Pavitra
Luke Kenny as Rob Nancy


Watch-Free-HD     Download

Details
Name:Rock On 2 (2016) [Hindi] 720p Untouched Web-HD AVC AAC Msub - DownloadHD
Description:
Rock On 2 (2016) [Hindi] 720p Untouched Web-HD AVC AAC Msub - DownloadHD

Format                      : Matroska
File size                   : 3.17 GiB
Duration                    : 2 h 22 min
Overall bit rate            : 3 188 kb/s

Video
ID                          : 1
Format                      : AVC
Format/Info                 : Advanced Video Codec
Format profile              : [email protected]
Format settings, CABAC      : Yes
Format settings, ReFrames   : 4 frames
Format settings, GOP        : M=4, N=30
Codec ID                    : V_MPEG4/ISO/AVC
Duration                    : 2 h 22 min
Bit rate                    : 3 014 kb/s
Width                       : 1 280 pixels
Height                      : 720 pixels
Display aspect ratio        : 16:9
Frame rate mode             : Constant
Frame rate                  : 24.000 FPS
Stream size                 : 2.97 GiB (94%)


Audio
ID                          : 2
Format                      : AAC
Format/Info                 : Advanced Audio Codec
Format profile              : LC
Codec ID                    : A_AAC
Duration                    : 2 h 22 min
Bit rate                    : 192 kb/s
Channel(s)                  : 2 channels
Channel positions           : Front: L R
Sampling rate               : 48.0 kHz
Frame rate                  : 46.875 FPS (1024 spf)
Stream size                 : 197 MiB (6%)


                           
Category:Movies > Bollywood
Lang:Hindi
Total Size:3.17 GB
Info Hash:0a39b9c6a951aa1afcbad9b381ca9ef3c14a7250
Added By:Unknown
Date Added:02-06-2017 21:48:47
Downloads:187

Ratings:Not Yet Rated (Log in to rate it)


Tracker:
udp://tracker.coppersurfer.tk:6969/announce


File List: 


Comments

No comments still posted

Top
Copyright 2018 DownloadHD -|- Page Generated In 7.120174 secs.
-|- RSS Feed -|- Feed Info
Harvey Birdman, Attorney at Law | Spencer Neville | geneatique