Colm Meaney | Famous in Love | Watch movie


Login
Username:
Password:
[Signup]
[Recover Account]


Browse Torrents

Poll


You must be logged in to view polls



Latest Torrents
Unwritten Obsessio...
- [Size: 1.67 GB]

Naani (2004) 720p ...
- [Size: 1.44 GB]

Avengers.Infinity....
- [Size: 5.36 GB]

Barbie in Princess...
- [Size: 679.81 MB]

Swades 2004 Hindi ...
- [Size: 1.50 GB]


Torrent Details For "{KMediaworKs} Srimantudu Hindi "

{KMediaworKs} Srimantudu Hindi

Download this torrent | Magnet Download
Health:
Seeds: 0
Leechers: 1
Completed:
Last Checked: 06-06-2017 08:53:23
External Torrent
Update Stats



Poster


iMDB
Imdb Picture Title: Srimanthudu
Year: 2015
Runtime: 158 minutes
Votes: 7012
Rating: 7.7/10
Language: Telugu
Country: India
All Genres: Action, Drama, Romance
Plot Outline: Harsha, a multi-millionaire who has everything, still feels that there is something missing in his life. In an attempt to fill the void, he adopts a village to bring change in the people.
Director: Siva Koratala
Writing By: Siva Koratala,
Music: Devi Sri Prasad
Plot:

The simple yet, inspiring tale of Srimanthudu is about the scion of a wealthy business family, who is disinterested in merely making money. His thoughts and later circumstances move him to adopt a nondescript village and develop it against various odds. A wealthy entrepreneur (Jagapathi Babu) is a worried lot owing to his son's (Mahesh Babu) indifferent and aloof attitude. He wishes his son to acquire and continue the monumental business empire that he built over his lifetime. But, the latter does not agree to it, stating that he wishes to acquire respect first. His thoughts lie elsewhere. He meets a girl (Shruthi Haasan) and they soon fall in love owing to the similarity in their thoughts. However, when she gets to know his identity, she simply ignores him. When confronted, she chides him that he is too rich and does not even know the place of his birth. She is later revealed to be the daughter of a benevolent village head (Dr Rajendra Prasad). Incidentally that is the same village. Later, the hero visits and adopts the village, financing and taking active part in construction of a school, roads etc. This brings him an inevitable clash with a selfish union minister and his brother, who grip the village in a reign of terror and fear. How the hero convinces his father and embarks on a difficult path forms thus, the crux of the story.

- Written by Mass_Sonu

Harsha, a multi-millionaire who has everything, still feels that there is something missing in his life. In an attempt to fill the void, he adopts a village to bring change in the people.

- Written by Kiran Mascarenhas
Cast:
Darbha Appaji Ambarisha as Board Member
Jagapathi Babu as Ravikanth
Mahesh Babu as Harsha Vardhan
Shruti Haasan as Chaaruseela
Tejaswi Madivada as
Sampath Raj as Shasi
Rajendraprasad as Narayana
Rahul Ravindran as Karthik
Sanam Shetty as
Sukanya as



Details
Name:{KMediaworKs} Srimantudu Hindi
Description:
Video Details :-MPHC

Video
ID                             : 1
Format                         : AVC
Format/Info                    : Advanced Video Codec
Format profile                 : [email protected]
Format settings, CABAC         : Yes
Format settings, ReFrames      : 4 frames
Codec ID                       : V_MPEG4/ISO/AVC
Duration                       : 2 h 39 min
Bit rate                       : 375 kb/s
Width                          : 720 pixels
Height                         : 306 pixels
Display aspect ratio           : 2.35:1
Frame rate mode                : Constant
Frame rate                     : 24.000 FPS
Color space                    : YUV
Chroma subsampling             : 4:2:0
Bit depth                      : 8 bits
Scan type                      : Progressive
Bits/(Pixel*Frame)             : 0.071
Stream size                    : 421 MiB (84%)

Writing library                : x264 core 148
Language                       : Hindi
Default                        : Yes
Forced                         : Yes
Color range                    : Limited
Color primaries                : BT.709
Transfer characteristics       : BT.709
Matrix coefficients            : BT.709
Statistics Tags Issue          : mkvmerge v8.9.0 ('Father Daughter') 64bit 2017-06-01 12:57:31 / mkvmerge v8.9.0 ('Father Daughter') 64bit 2017-06-01 12:57:31 / UTC 2017-06-01T11:54:10Z
FromStats_BitRate              : 375223
FromStats_Duration             : 02:39:28.834000000
FromStats_FrameCount           : 229652
FromStats_StreamSize           : 448806287

Audio #1
ID                             : 2
Format                         : MPEG Audio
Format version                 : Version 2
Format profile                 : Layer 3
Mode                           : Joint stereo
Mode extension                 : MS Stereo
Codec ID                       : A_MPEG/L3
Codec ID/Hint                  : MP3
Duration                       : 2 h 39 min
Bit rate mode                  : Constant
Bit rate                       : 32.0 kb/s
Channel(s)                     : 2 channels
Sampling rate                  : 22.05 kHz
Compression mode               : Lossy
Delay relative to video        : -50 ms
Stream size                    : 36.5 MiB (7%)

Writing library                : LAME3.98
Language                       : Hindi
Default                        : Yes
Forced                         : No
Statistics Tags Issue          : mkvmerge v8.9.0 ('Father Daughter') 64bit 2017-06-01 12:57:31 / mkvmerge v8.9.0 ('Father Daughter') 64bit 2017-06-01 12:57:31 / UTC 2017-06-01T11:54:10Z
FromStats_BitRate              : 32000
FromStats_Duration             : 02:39:28.679000000
FromStats_FrameCount           : 366301
FromStats_StreamSize           : 38274717

Audio #2
ID                             : 3
Format                         : MPEG Audio
Format version                 : Version 2
Format profile                 : Layer 3
Mode                           : Joint stereo
Mode extension                 : MS Stereo
Codec ID                       : A_MPEG/L3
Codec ID/Hint                  : MP3
Duration                       : 2 h 39 min
Bit rate mode                  : Constant
Bit rate                       : 32.0 kb/s
Channel(s)                     : 2 channels
Sampling rate                  : 22.05 kHz
Compression mode               : Lossy
Delay relative to video        : -50 ms
Stream size                    : 36.5 MiB (7%)

Language                       : Telugu
Default                        : No
Forced                         : No
Statistics Tags Issue          : mkvmerge v8.9.0 ('Father Daughter') 64bit 2017-06-01 12:57:31 / mkvmerge v8.9.0 ('Father Daughter') 64bit 2017-06-01 12:57:31 / UTC 2017-06-01T11:54:10Z
FromStats_BitRate              : 32000
FromStats_Duration             : 02:39:28.679000000
FromStats_FrameCount           : 366301
FromStats_StreamSize           : 38274717
Category:Movies > South Dub
Lang:Hindi
Total Size:504.15 MB
Info Hash:858f48ca9f1cd569cc0233fdcc1ae2802d071f9b
Added By:syedkhalid313
Date Added:05-06-2017 10:31:17
Downloads:573

Ratings:Not Yet Rated (Log in to rate it)

  


Tracker:
udp://tracker.coppersurfer.tk:6969/announce


File List: 


Comments

No comments still posted

Copyright 2018 DownloadHD -|- Page Generated In 0.197660 secs.
-|- RSS Feed -|- Feed Info