Van Helsing | Jessica Biel | Chet Baker - Baker's Holiday (2012) [24-192 HD FLAC]


Login
Username:
Password:
[Signup]
[Recover Account]


Browse Torrents

Poll


You must be logged in to view polls



Latest Torrents
Veer - Vivegam 201...
- [Size: 834.47 MB]

Thodari (2016) 720...
- [Size: 1.75 GB]

Ready Player One 2...
- [Size: 876.35 MB]

Blockers (2018) 72...
- [Size: 800.06 MB]

The Last Samuri (2...
- [Size: 1.40 GB]


Torrent Details For "Hawaa Hawaai ( 2014 ) Hindi 720p DVDRip x264 AAC ESub { TaRa }.mkv"

Hawaa Hawaai ( 2014 ) Hindi 720p DVDRip x264 AAC ESub { TaRa }.mkv

Download this torrent | Magnet Download
Health:
Seeds: 0
Leechers: 2
Completed:
Last Checked: 16-04-2018 18:40:27
External Torrent
Update Stats


Watch-Free-HD     Download

Poster


Watch-Free-HD     Download

Details
Name:Hawaa Hawaai ( 2014 ) Hindi 720p DVDRip x264 AAC ESub { TaRa }.mkv
Description:

Quote:

Hawaa Hawaai ( 2014 ) Hindi 720p DVDRip x264 AAC ESub { TaRa }.mkv


===================================================================
General
Complete name               : Hawaa Hawaai ( 2014 ) Hindi 720p DVDRip x264 AAC ESub { TaRa }.mkv
Format                      : Matroska
Format version              : Version 4 / Version 2
File size                   : 860 MiB
Duration                    : 2 h 0 min
Overall bit rate            : 997 kb/s
===================================================================
Video
ID                          : 1
Format                      : AVC
Format/Info                 : Advanced Video Codec
Format profile              : [email protected]
Format settings, CABAC      : Yes
Format settings, ReFrames   : 12 frames
Codec ID                    : V_MPEG4/ISO/AVC
Duration                    : 2 h 0 min
Bit rate                    : 899 kb/s
Width                       : 1 280 pixels
Height                      : 544 pixels
Display aspect ratio        : 2.35:1
Frame rate mode             : Constant
Frame rate                  : 23.976 (24000/1001) FPS
Color space                 : YUV
Chroma subsampling          : 4:2:0
Bit depth                   : 8 bits
Scan type                   : Progressive
Bits/(Pixel*Frame)          : 0.054
Stream size                 : 775 MiB (90%)
Title                       : .....::::: TaRa :::::.....
Language                    : Hindi
Default                     : Yes
Forced                      : No
===================================================================
Audio
ID                          : 2
Format                      : AAC
Format/Info                 : Advanced Audio Codec
Format profile              : LC
Codec ID                    : A_AAC
Duration                    : 2 h 0 min
Bit rate                    : 96.0 kb/s
Channel(s)                  : 2 channels
Channel positions           : Front: L R
Sampling rate               : 44.1 kHz
Frame rate                  : 43.066 FPS (1024 spf)
Compression mode            : Lossy
Delay relative to video     : 323 ms
Stream size                 : 82.8 MiB (10%)
Title                       : .....::::: TaRa :::::.....
Language                    : Hindi
Default                     : Yes
Forced                      : No
===================================================================
Text
ID                          : 3
Format                      : UTF-8
Codec ID                    : S_TEXT/UTF8
Codec ID/Info               : UTF-8 Plain Text
Duration                    : 1 h 50 min
Bit rate                    : 40 b/s
Count of elements           : 1279
Stream size                 : 32.8 KiB (0%)
Default                     : Yes
Forced                      : No
===================================================================













Category:Movies > Bollywood
Lang:Hindi
Total Size:859.58 MB
Info Hash:46457fbb48d9c623d4e515ca61bd39cefde4834c
Added By:SkTaRa
Date Added:27-03-2017 16:11:14
Downloads:459

Download Torrent

Ratings:Not Yet Rated (Log in to rate it)

  


Tracker:
udp://tracker.ccc.de:80/announce

This Torrent also has backup trackers
URLSeedersLeechersCompleted
http://tracker.dler.org:6969/announce000
http://ipv4.tracker.harry.lu:80/announce020


File List: 


Comments

No comments still posted

Powered by 10 Hamsters v2-svn -|- Page Generated In 1.788290 secs.
-|- RSS Feed -|- Feed Info
Theme By: Nikkbu