See Dad Run | John Wesley | Mechanical Engineer's Data Handbook


Login
Username:
Password:
[Signup]
[Recover Account]


Browse Torrents

Poll


You must be logged in to view polls



Latest Torrents
This Old Machine 2...
- [Size: 747.73 MB]

Viking Destiny 201...
- [Size: 2.30 GB]

Lockdown S01 Ep1 a...
- [Size: 777.01 MB]

Mysteries.at.the.M...
- [Size: 1.30 GB]

Woman.Walks.Ahead....
- [Size: 595.67 MB]


Torrent Details For "Baazigar - Mohra - Aankhen (2006) FLAC"

Baazigar - Mohra - Aankhen (2006) FLAC

Download this torrent | Magnet Download
Health:
Seeds: 0
Leechers: 2
Completed:
Last Checked: 12-05-2018 13:21:03
External Torrent
Update Stats



Poster



Details
Name:Baazigar - Mohra - Aankhen (2006) FLAC
Description:
Exact Audio Copy V0.99 prebeta 5 from 4. May 2009

EAC extraction logfile from 16. September 2011, 13:44

Various / Baazigar,Mohra,Aankhen

Used drive  : ASUS    CB-5216A   Adapter: 0  ID: 1

Read mode               : Secure
Utilize accurate stream : Yes
Defeat audio cache      : No
Make use of C2 pointers : No

Read offset correction                      : 0
Overread into Lead-In and Lead-Out          : No
Fill up missing offset samples with silence : Yes
Delete leading and trailing silent blocks   : No
Null samples used in CRC calculations       : Yes
Used interface                              : Native Win32 interface for Win NT & 2000
Gap handling                                : Appended to previous track

Used output format              : User Defined Encoder
Selected bitrate                : 128 kBit/s
Quality                         : Low
Add ID3 tag                     : No
Command line compressor         : C:\Program Files\eac-0.99pb5\flac-1.2.1b-icl\flac.exe
Additional command line options : -T "artist=%a" -T "title=%t" -T "album=%g" -T "date=%y" -T "tracknumber=%n" -T "genre=%m" -5 %s


TOC of the extracted CD

    Track |   Start  |  Length  | Start sector | End sector
   ---------------------------------------------------------
       1  |  0:00.00 |  7:34.15 |         0    |    34064  
       2  |  7:34.15 |  7:32.11 |     34065    |    67975  
       3  | 15:06.26 |  7:02.42 |     67976    |    99667  
       4  | 22:08.68 |  6:29.63 |     99668    |   128905  
       5  | 28:38.56 |  6:24.65 |    128906    |   157770  
       6  | 35:03.46 |  5:57.27 |    157771    |   184572  
       7  | 41:00.73 |  6:01.24 |    184573    |   211671  
       8  | 47:02.22 |  5:25.48 |    211672    |   236094  
       9  | 52:27.70 |  5:52.14 |    236095    |   262508  
      10  | 58:20.09 |  4:24.49 |    262509    |   282357  
      11  | 62:44.58 |  5:43.26 |    282358    |   308108  
      12  | 68:28.09 |  6:45.61 |    308109    |   338544  


Track  1

    Filename C:\Users\Tupaibag91\Music\Ripped\VA - Baazigar,Mohra,Aankhen\01 - Kumar Sanu & Alka Yagnik - Baazigar O Baazigar.wav

    Pre-gap length  0:00:02.00

    Peak level 100.0 %
    Track quality 100.0 %
    Copy CRC 6877D968
    Copy OK

Track  2

    Filename C:\Users\Tupaibag91\Music\Ripped\VA - Baazigar,Mohra,Aankhen\02 - Vinod Rathod & Alka Yagnik - Ae Mere Humsafar.wav

    Pre-gap length  0:00:02.00

    Peak level 91.2 %
    Track quality 100.0 %
    Copy CRC 5C300FB7
    Copy OK

Track  3

    Filename C:\Users\Tupaibag91\Music\Ripped\VA - Baazigar,Mohra,Aankhen\03 - Pankaj Udhas - Chhupana Bhi Nahin.wav

    Pre-gap length  0:00:02.00

    Peak level 99.9 %
    Track quality 100.0 %
    Copy CRC ED73C3A1
    Copy OK

Track  4

    Filename C:\Users\Tupaibag91\Music\Ripped\VA - Baazigar,Mohra,Aankhen\04 - Asha Bhosle & Vinod Rathod - Kitaben Bahut Si.wav

    Pre-gap length  0:00:02.00

    Peak level 99.8 %
    Track quality 99.9 %
    Copy CRC C48F6FDE
    Copy OK

Track  5

    Filename C:\Users\Tupaibag91\Music\Ripped\VA - Baazigar,Mohra,Aankhen\05 - Udit Narayan & Alka Yagnik - Tu Cheez Badi.wav

    Pre-gap length  0:00:02.00

    Peak level 100.0 %
    Track quality 99.9 %
    Copy CRC D0889063
    Copy OK

Track  6

    Filename C:\Users\Tupaibag91\Music\Ripped\VA - Baazigar,Mohra,Aankhen\06 - Udit Narayan & Sadhna Sargam - Subhase Leke.wav

    Pre-gap length  0:00:02.00

    Peak level 100.0 %
    Track quality 100.0 %
    Copy CRC ECF5BC7A
    Copy OK

Track  7

    Filename C:\Users\Tupaibag91\Music\Ripped\VA - Baazigar,Mohra,Aankhen\07 - Udit Narayan & Alka Yagnik - Tip Tip Barsa.wav

    Pre-gap length  0:00:02.00

    Peak level 100.0 %
    Track quality 99.9 %
    Copy CRC 4F526374
    Copy OK

Track  8

    Filename C:\Users\Tupaibag91\Music\Ripped\VA - Baazigar,Mohra,Aankhen\08 - Pankaj Udhas & Sadhna Sargam - Na Kajre Ki Dhar.wav

    Pre-gap length  0:00:02.00

    Peak level 80.1 %
    Track quality 100.0 %
    Copy CRC C85CF4D7
    Copy OK

Track  9

    Filename C:\Users\Tupaibag91\Music\Ripped\VA - Baazigar,Mohra,Aankhen\09 - Kumar Sanu,Sudesh Bhosle,Kavita Krishnamurthy & Alka Yagnik - O Laal Dupatte Wali.wav

    Pre-gap length  0:00:02.00

    Peak level 100.0 %
    Track quality 100.0 %
    Copy CRC C6B1BEE0
    Copy OK

Track 10

    Filename C:\Users\Tupaibag91\Music\Ripped\VA - Baazigar,Mohra,Aankhen\10 - Asha Bhosle & Kumar Sanu - Ek Tammna.wav

    Pre-gap length  0:00:02.00

    Peak level 91.8 %
    Track quality 99.9 %
    Copy CRC EEE7D82B
    Copy OK

Track 11

    Filename C:\Users\Tupaibag91\Music\Ripped\VA - Baazigar,Mohra,Aankhen\11 - Kumar Sanu & Sadhna Sargam - Angna Mein Baba.wav

    Pre-gap length  0:00:02.00

    Peak level 100.0 %
    Track quality 99.9 %
    Copy CRC C8C651F9
    Copy OK

Track 12

    Filename C:\Users\Tupaibag91\Music\Ripped\VA - Baazigar,Mohra,Aankhen\12 - Kumar Sanu & Mohd.Aziz - Chaukhat Pe Tumhari Hum.wav

    Pre-gap length  0:00:02.00

    Peak level 100.0 %
    Track quality 100.0 %
    Copy CRC 6D9CE603
    Copy OK

No errors occurred

End of status report


CREDIT GOES TO ORIGINAL RIPPER PARTHA PRATIM SANYAL
Category:Music > FLAC
Lang:Hindi
Total Size:492.83 MB
Info Hash:925d9b77d792cf2e1f49af15adac8add0cb77ba3
Added By:tupaibag91
Date Added:10-06-2017 16:44:52
Downloads:430

Ratings:Not Yet Rated (Log in to rate it)

  


Tracker:
udp://tracker.coppersurfer.tk:6969/announce


File List: 


Comments

<< Previous      Next >>
1 - 3

[Report] Posted: 10-06-2017 at 16:47:10
Deluser
Deleted Account


Excellent share . Keep it up.  :love

[Report] Posted: 25-06-2017 at 05:08:02
sajni



plz seed i am stuck at 86.1%

[Report] Posted: 12-07-2017 at 13:46:54
pcmechanicfj



pls seed, Iam stuck as well

1 - 3
<< Previous      Next >>


Copyright 2018 DownloadHD -|- Page Generated In 0.269738 secs.
-|- RSS Feed -|- Feed Info