Pregnant Milking In The UK 4 | épisode 11 streaming I Ain´t A Judas | Olivia Cheng


Login
Username:
Password:
[Signup]
[Recover Account]


Browse Torrents

Poll


You must be logged in to view polls



Latest Torrents
Motorrad.2017.DVDR...
- [Size: 720.46 MB]

La.Holandesa.2017....
- [Size: 506.49 MB]

Beyond.Words.2017....
- [Size: 355.82 MB]

Teachers.2016.S03E...
- [Size: 184.60 MB]

Teachers.2016.S03E...
- [Size: 280.17 MB]


Torrent Details For " Jungle Beat - Season 02 - 1080p WEBHD - x264 - AAC - [t4n7iR]"

Jungle Beat - Season 02 - 1080p WEBHD - x264 - AAC - [t4n7iR]

Download this torrent | Magnet Download
Health:
Seeds: 12
Leechers: 0
Completed:
Last Checked: 10-04-2018 00:27:55
External Torrent
Update Stats


Watch-Free-HD     Download

Poster


iMDB
Imdb Picture Title: Jungle Beat
Year: 2003
Runtime: 5 minutes
Votes: 27
Rating: 8.1/10
Language: English
Country: South Africa
All Genres: Animation, Family
Plot Outline: Each short episode is divided into two segments - The first part involves wordless slapstick comedy among four safari explorers which introduces an animal. The second part shows (another wordless) adventure of the animal previously seen.
Director: Brent Dawes
Writing By: Brent Dawes,
Produced By: Phil Cunningham,Jacqui Cunningham,Rita Mbanga,Matthew Brown,Nicola Rowe,Mike Scott,
Music: Rodney Newman Matthijs Dijk Jeremy Olivier
Cast:
Rodney Newman as Ant 5 episodes, 2003-2011
Gavin Peter as Giraffe 4 episodes, 2005-2014
Matthew Gair as Tortoise 4 episodes, 2006-2014
Brent Dawes as Monkey 3 episodes, 2006-2012
Dorian Burstein as Elephant 2 episodes, 2011-2014
Adam Neill as Frog 2 episodes, 2012-2014
Leon Clingman as Chameleon(2012) 2 episodes, 2012
Brent Dawes as Bee 2 episodes, 2014-2015
Irene Van Niekerk as Ostrich 1 episode, 2007
Davina Jogi as Baby Ostrich 1 episode, 2009


Watch-Free-HD     Download

Details
Name: Jungle Beat - Season 02 - 1080p WEBHD - x264 - AAC - [t4n7iR]
Description:





Quote:

General
Complete name               : Jungle Beat - Season 02 - 1080p WEBHD - x264 - AAC - [t4n7iR].MP4
Format                      : MPEG-4
Format profile              : Base Media
Codec ID                    : isom (isom/iso2/avc1/mp41)
File size                   : 915 MiB
Duration                    : 1 h 6 min
Overall bit rate mode       : Variable
Overall bit rate            : 1 935 kb/s
Encoded date                : UTC 2017-11-05 15:15:21
Tagged date                 : UTC 2017-11-05 15:15:21

Video
ID                          : 1
Format                      : AVC
Format/Info                 : Advanced Video Codec
Format profile              : [email protected]
Format settings             : CABAC / 3 Ref Frames
Format settings, CABAC      : Yes
Format settings, ReFrames   : 3 frames
Codec ID                    : avc1
Codec ID/Info               : Advanced Video Coding
Duration                    : 1 h 6 min
Source duration             : 1 h 6 min
Bit rate                    : 1 806 kb/s
Width                       : 1 920 pixels
Height                      : 1 080 pixels
Display aspect ratio        : 16:9
Frame rate mode             : Constant
Frame rate                  : 25.000 FPS
Color space                 : YUV
Chroma subsampling          : 4:2:0
Bit depth                   : 8 bits
Scan type                   : Progressive
Bits/(Pixel*Frame)          : 0.035
Stream size                 : 854 MiB (93%)
Source stream size          : 854 MiB (93%)
Encoded date                : UTC 2017-11-05 15:15:21
Tagged date                 : UTC 2017-11-05 15:15:21
Color range                 : Limited
Color primaries             : BT.709
Transfer characteristics    : BT.709
Matrix coefficients         : BT.709

Audio
ID                          : 2
Format                      : AAC
Format/Info                 : Advanced Audio Codec
Format profile              : LC
Codec ID                    : mp4a-40-2
Duration                    : 1 h 6 min
Bit rate mode               : Variable
Bit rate                    : 126 kb/s
Channel(s)                  : 2 channels
Channel positions           : Front: L R
Sampling rate               : 44.1 kHz
Frame rate                  : 43.066 FPS (1024 SPF)
Compression mode            : Lossy
Stream size                 : 59.4 MiB (6%)
Default                     : Yes
Alternate group             : 1
Encoded date                : UTC 2017-11-05 14:13:46
Tagged date                 : UTC 2017-11-05 14:13:46













Category:Other > Animation
Lang:English  English
Total Size:915.12 MB
Info Hash:4c96097126c2381fe3ef67b0ea2aa2580d07ead9
Added By:t4n7iR
Date Added:09-04-2018 22:56:18
Downloads:125

Download Torrent

Ratings:Not Yet Rated (Log in to rate it)


Tracker:
http://jiotorrents.net/announce.php?pk=d7474d9c7c536b05a1d8a325c8236eb419131fb2


File List: 


Comments

No comments still posted

Powered by 10 Hamsters v2-svn -|- Page Generated In 3.106110 secs.
-|- RSS Feed -|- Feed Info
Theme By: Nikkbu