Law & Order: True Crime | Émulation | Mistérios , Espionagem e Detectives


Login
Username:
Password:
[Signup]
[Recover Account]


Browse Torrents

Poll


You must be logged in to view polls



Latest Torrents
Teachers.2016.S03E...
- [Size: 184.60 MB]

Teachers.2016.S03E...
- [Size: 280.17 MB]

Beauty.And.The.Dog...
- [Size: 585.55 MB]

Younger.S05E06.WEB...
- [Size: 264.89 MB]

Younger.S05E06.720...
- [Size: 461.26 MB]


Torrent Details For "Jungle Beat - Season 03 - 1080p WEBHD - x264 - AAC - [t4n7iR]"

Jungle Beat - Season 03 - 1080p WEBHD - x264 - AAC - [t4n7iR]

Download this torrent | Magnet Download
Health:
Seeds: 8
Leechers: 4
Completed:
Last Checked: 10-04-2018 03:12:15
External Torrent
Update Stats


Watch-Free-HD     Download

Poster


iMDB
Imdb Picture Title: Jungle Beat
Year: 2003
Runtime: 5 minutes
Votes: 27
Rating: 8.1/10
Language: English
Country: South Africa
All Genres: Animation, Family
Plot Outline: Each short episode is divided into two segments - The first part involves wordless slapstick comedy among four safari explorers which introduces an animal. The second part shows (another wordless) adventure of the animal previously seen.
Director: Brent Dawes
Writing By: Brent Dawes,
Produced By: Phil Cunningham,Jacqui Cunningham,Rita Mbanga,Matthew Brown,Nicola Rowe,Mike Scott,
Music: Rodney Newman Matthijs Dijk Jeremy Olivier
Cast:
Rodney Newman as Ant 5 episodes, 2003-2011
Gavin Peter as Giraffe 4 episodes, 2005-2014
Matthew Gair as Tortoise 4 episodes, 2006-2014
Brent Dawes as Monkey 3 episodes, 2006-2012
Dorian Burstein as Elephant 2 episodes, 2011-2014
Adam Neill as Frog 2 episodes, 2012-2014
Leon Clingman as Chameleon(2012) 2 episodes, 2012
Brent Dawes as Bee 2 episodes, 2014-2015
Irene Van Niekerk as Ostrich 1 episode, 2007
Davina Jogi as Baby Ostrich 1 episode, 2009


Watch-Free-HD     Download

Details
Name:Jungle Beat - Season 03 - 1080p WEBHD - x264 - AAC - [t4n7iR]
Description:





Quote:

General
Complete name               : Jungle Beat - Season 03 - Episode 01.mp4
Format                      : MPEG-4
Format profile              : Base Media
Codec ID                    : isom (isom/iso2/avc1/mp41)
File size                   : 96.6 MiB
Duration                    : 5 min 16 s
Overall bit rate            : 2 566 kb/s
Writing application         : Lavf58.9.100

Video
ID                          : 1
Format                      : AVC
Format/Info                 : Advanced Video Codec
Format profile              : [email protected]
Format settings             : CABAC / 5 Ref Frames
Format settings, CABAC      : Yes
Format settings, ReFrames   : 5 frames
Codec ID                    : avc1
Codec ID/Info               : Advanced Video Coding
Duration                    : 5 min 15 s
Bit rate                    : 2 500 kb/s
Width                       : 1 920 pixels
Height                      : 1 080 pixels
Display aspect ratio        : 16:9
Frame rate mode             : Constant
Frame rate                  : 25.000 FPS
Color space                 : YUV
Chroma subsampling          : 4:2:0
Bit depth                   : 8 bits
Scan type                   : Progressive
Bits/(Pixel*Frame)          : 0.048
Stream size                 : 91.6 MiB (95%)

Audio
ID                          : 2
Format                      : AAC
Format/Info                 : Advanced Audio Codec
Format profile              : LC
Codec ID                    : mp4a-40-2
Duration                    : 5 min 16 s
Bit rate mode               : Constant
Bit rate                    : 128 kb/s
Channel(s)                  : 2 channels
Channel positions           : Front: L R
Sampling rate               : 44.1 kHz
Frame rate                  : 43.066 FPS (1024 SPF)
Compression mode            : Lossy
Stream size                 : 4.82 MiB (5%)
Default                     : Yes
Alternate group             : 1
















Category:Other > Animation
Lang:English  English
Total Size:1.16 GB
Info Hash:cb5e0304bb513ec548c4f69eb150acd783d6c4c3
Added By:t4n7iR
Date Added:10-04-2018 01:26:10
Downloads:219

Download Torrent

Ratings:Not Yet Rated (Log in to rate it)


Tracker:
http://jiotorrents.net/announce.php?pk=d7474d9c7c536b05a1d8a325c8236eb419131fb2


File List: 


Comments

No comments still posted

Powered by 10 Hamsters v2-svn -|- Page Generated In 3.671610 secs.
-|- RSS Feed -|- Feed Info
Theme By: Nikkbu