No dormiras 2018 WEB-DL 1080p ExKinoRay | Finally Living Together with my Anti-Fan | ABOUT US


Login
Username:
Password:
[Signup]
[Recover Account]


Browse Torrents

Poll


You must be logged in to view polls



Latest Torrents
This Old Machine 2...
- [Size: 747.73 MB]

Viking Destiny 201...
- [Size: 2.30 GB]

Lockdown S01 Ep1 a...
- [Size: 777.01 MB]

Mysteries.at.the.M...
- [Size: 1.30 GB]

Woman.Walks.Ahead....
- [Size: 595.67 MB]


Torrent Details For "Bambukat 2016 480p DVD RIP Punjabi GOPI SAHI"

Bambukat 2016 480p DVD RIP Punjabi GOPI SAHI

Download this torrent | Magnet Download
Health:
Seeds: 0
Leechers: 15
Completed: 688 
Last Checked: 02-09-2017 08:26:30
External Torrent
Update Stats



Poster
No poster



Details
Name:Bambukat 2016 480p DVD RIP Punjabi GOPI SAHI
Description:



Video
ID                             : 1
Format                         : AVC
Codec ID                       : V_MPEG4/ISO/AVC
Duration                       : 1 h 57 min
Bit rate                       : 699 kb/s
Width                          : 720 pixels
Height                         : 430 pixels
Display aspect ratio           : 1.984
Frame rate mode                : Constant
Frame rate                     : 23.976 (24000/1001) FPS
Stream size                    : 592 MiB (89%)
Writing library                : x264 core 130 r2273 b3065e6

Audio
ID                             : 2
Format                         : AAC
Duration                       : 1 h 57 min
Bit rate                       : 88.3 kb/s
Channel(s)                     : 6 channels
Channel positions              : Front: L C R, Side: L R, LFE
Sampling rate                  : 44.1 kHz
Frame rate                     : 43.066 FPS (1024 spf)
Stream size                    : 74.5 MiB (11%)


Category:Movies > Punjabi
Lang:Punjabi
Total Size:668.55 MB
Info Hash:51bbe9193626d1b2cf622db2c4d1c1a876b2b0ea
Added By:gopisahi
Date Added:14-06-2017 06:20:13
Downloads:522

Ratings:Not Yet Rated (Log in to rate it)


Tracker:
udp://tracker.coppersurfer.tk:6969/announce


File List: 


Comments

<< Previous      Next >>
1 - 2

[Report] Posted: 14-06-2017 at 10:34:49
RomanEmpire



Need Better Quality Not in 480p...
If Available plz upload in HDRip Or WebRip.....

[Report] Posted: 15-06-2017 at 20:20:42
rupi1979



plz upload in better quality atleast 720p

1 - 2
<< Previous      Next >>


Copyright 2018 DownloadHD -|- Page Generated In 0.404591 secs.
-|- RSS Feed -|- Feed Info