Login
Username:
Password:
[Signup]
[Recover Account]


Browse Torrents

Poll


You must be logged in to view polls



Latest Torrents
Ravens.Home.S02E16...
- [Size: 194.08 MB]

Coop.and.Cami.Ask....
- [Size: 189.33 MB]

Impractical.Jokers...
- [Size: 454.35 MB]

Major Lazer - Majo...
- [Size: 206.00 MB]

Vadhayiyaan Ji Vad...
- [Size: 690.66 MB]


Torrent Details For "Jurassic.World.Fallen.Kingdom.2018. 720p.HDCAM.Rip. x264.MP3.ENGLISH.LLG"

Jurassic.World.Fallen.Kingdom.2018. 720p.HDCAM.Rip. x264.MP3.ENGLISH.LLG

Download this torrent | Magnet Download
Health:
Seeds: 0
Leechers: 0
Completed:
Last Checked: 08-06-2018 06:54:49
External Torrent
Update Stats



Watch-Free-HD     Download
Poster
No poster


iMDB
Imdb Picture Title: Jurassic World: Fallen Kingdom
Year: 2018
Runtime: 128 minutes
Votes: 3401
Rating: 7.4/10
Language: English
Country: USA, Spain
All Genres: Action, Adventure, Sci-Fi
Plot Outline: Four years after the Jurassic World theme park was closed down, Owen and Claire return to Isla Nublar to save the dinosaurs when they learn that a once dormant volcano on the island is active and is threatening to extinguish all life there. Along the way, Owen sets out to find Blue, his lead raptor, and discovers a conspiracy that could disrupt the natural order of the entire planet. Life has found a way, again. Written by Jake Logsdon


Tagline: The park is gone
Director: J.A. Bayona
Writing By: Colin Trevorrow,Derek Connolly,Michael Crichton,
Produced By: Belén Atienza,Patrick Crowley,Thomas Hayslip,Frank Marshall,Steven Spielberg,Colin Trevorrow,Thomas Tull,
Music: Michael Giacchino
Cast:
Bryce Dallas Howard as Claire Dearing
Chris Pratt as Owen Grady
Ted Levine as Ken Wheatley
Jeff Goldblum as Ian Malcolm
Toby Jones as Gunnar Eversol
James Cromwell as Benjamin Lockwood
BD Wong as Dr. Henry Wu
Rafe Spall as Eli Mills
Daniella Pineda as Zia Rodriguez
Justice Smith as Franklin
Trailers:
Final Trailer
New Trailer Teaser
Official Trailer #2
Official Trailer
"Run!"


Watch-Free-HD     Download

Details
Name:Jurassic.World.Fallen.Kingdom.2018. 720p.HDCAM.Rip. x264.MP3.ENGLISH.LLG
Description:
******************************Thumbnail:**********************

 

******************************Screenshots:********************

 Screenshot 1

 Screenshot 2

 Screenshot 3

 Screenshot 4

 Screenshot 5

 Screenshot 6

 Screenshot 7

 Screenshot 8

 Screenshot 9

 Screenshot 0

**************************************************************

Complete name                            : Jurassic.World.Fallen.Kingdom.2018. 720p.HDCAM.Rip. x264.MP3.ENGLISH.LLG.mp4
Format                                   : MPEG-4
Format profile                           : Base Media
Codec ID                                 : isom (isom/iso2/avc1/mp41)
File size                                : 875 MiB
Duration                                 : 1 h 58 min
Overall bit rate                         : 1 032 kb/s
Writing application                      : Lavf57.56.101

Video
ID                                       : 1
Format                                   : AVC
Format/Info                              : Advanced Video Codec
Format profile                           : [email protected]
Format settings                          : CABAC / 4 Ref Frames
Format settings, CABAC                   : Yes
Format settings, RefFrames               : 4 frames
Codec ID                                 : avc1
Codec ID/Info                            : Advanced Video Coding
Duration                                 : 1 h 58 min
Bit rate                                 : 900 kb/s
Width                                    : 1 280 pixels
Height                                   : 544 pixels
Display aspect ratio                     : 2.35:1
Frame rate mode                          : Constant
Frame rate                               : 29.970 (29970/1000) FPS
Color space                              : YUV
Chroma subsampling                       : 4:2:0
Bit depth                                : 8 bits
Scan type                                : Progressive
Bits/(Pixel*Frame)                       : 0.043
Stream size                              : 761 MiB (87%)

Audio
ID                                       : 2
Format                                   : MPEG Audio
Format version                           : Version 1
Format profile                           : Layer 3
Format settings                          : Joint stereo / MS Stereo
Codec ID                                 : mp4a-6B
Duration                                 : 1 h 58 min
Duration_LastFrame                       : -17 ms
Bit rate mode                            : Constant
Bit rate                                 : 128 kb/s
Channel(s)                               : 2 channels
Sampling rate                            : 48.0 kHz
Compression mode                         : Lossy
Stream size                              : 109 MiB (12%)
Language                                 : English
Default                                  : Yes
Alternate group                          : 1

Category:Movies > Pre-Releases
Lang:English  English
Total Size:890.32 MB
Info Hash:e895aa1caf56e7fa2881ac9b3c75cb6c28bac6fe
Added By:LifeLongg
Date Added:08-06-2018 06:54:49
Downloads:73

Ratings:Not Yet Rated (Log in to rate it)


Tracker:
udp://tracker.openbittorrent.com:80/announce


File List: 


Comments

No comments still posted

Top
Copyright 2018 DownloadHD -|- Page Generated In 0.308086 secs.
-|- RSS Feed -|- Feed Info