Login
Username:
Password:
[Signup]
[Recover Account]


Browse Torrents

Poll


You must be logged in to view polls



Latest Torrents
Constantine.City.o...
- [Size: 435.81 MB]

Ravens.Home.S02E16...
- [Size: 194.08 MB]

Coop.and.Cami.Ask....
- [Size: 189.33 MB]

Impractical.Jokers...
- [Size: 454.35 MB]

Major Lazer - Majo...
- [Size: 206.00 MB]


Torrent Details For "Jurassic World Fallen Kingdom 2018 720p HDCAM x264 AAC [MW]"

Jurassic World Fallen Kingdom 2018 720p HDCAM x264 AAC [MW]

Download this torrent | Magnet Download
Health:
Seeds: 123
Leechers: 324
Completed: 116 
Last Checked: 08-06-2018 07:49:24
External Torrent
Update Stats



Watch-Free-HD     Download
Poster
No poster


Watch-Free-HD     Download

Details
Name:Jurassic World Fallen Kingdom 2018 720p HDCAM x264 AAC [MW]
Description:


 

General
Format                                   : Matroska
Format version                           : Version 4 / Version 2
File size                                : 957 MiB
Duration                                 : 1 h 58 min
Overall bit rate                         : 1 128 kb/s

Video
ID                                       : 1
Format                                   : AVC
Format/Info                              : Advanced Video Codec
Format profile                           : [email protected]
Format settings                          : CABAC / 4 Ref Frames
Format settings, CABAC                   : Yes
Format settings, RefFrames               : 4 frames
Codec ID                                 : V_MPEG4/ISO/AVC
Duration                                 : 1 h 58 min
Bit rate                                 : 1 000 kb/s
Width                                    : 1 288 pixels
Height                                   : 550 pixels
Display aspect ratio                     : 2.35:1
Frame rate mode                          : Constant
Frame rate                               : 29.970 (30000/1001) FPS
Color space                              : YUV
Chroma subsampling                       : 4:2:0
Bit depth                                : 8 bits
Scan type                                : Progressive
Bits/(Pixel*Frame)                       : 0.047
Stream size                              : 846 MiB (88%)
Writing library                          : x264 core 155 r2901 7d0ff22
Default                                  : Yes
Forced                                   : No

Audio
ID                                       : 2
Format                                   : AAC
Format/Info                              : Advanced Audio Codec
Format profile                           : LC
Codec ID                                 : A_AAC-2
Duration                                 : 1 h 58 min
Bit rate                                 : 128 kb/s
Channel(s)                               : 2 channels
Channel positions                        : Front: L R
Sampling rate                            : 48.0 kHz
Frame rate                               : 46.875 FPS (1024 SPF)
Compression mode                         : Lossy
Stream size                              : 109 MiB (11%)
Language                                 : English
Default                                  : Yes
Forced                                   : No





           


Category:Movies > Pre-Releases
Lang:English  English
Total Size:956.88 MB
Info Hash:a7bbac351b09111b37a3bce3e9e7e0baa5fa2986
Added By:Freaky
Date Added:08-06-2018 07:49:10
Downloads:124

Ratings:Not Yet Rated (Log in to rate it)


Tracker:
udp://tracker.coppersurfer.tk:6969/announce


File List: 


Comments

<< Previous      Next >>
1 - 1

[Report] Posted: 08-06-2018 at 13:02:41
starmusichd



Please Visit Now:  www.starmusichd.com

1 - 1
<< Previous      Next >>


Top
Copyright 2018 DownloadHD -|- Page Generated In 4.053249 secs.
-|- RSS Feed -|- Feed Info