Science Fiction | 9 de junho de 2018 | Laura Wiggins


Login
Username:
Password:
[Signup]
[Recover Account]


Browse Torrents

Poll


You must be logged in to view polls



Latest Torrents
Casualty.S32E40.HD...
- [Size: 298.36 MB]

Deadpool 2.2018.NE...
- [Size: 1.22 GB]

My Pure Land (2017...
- [Size: 897.62 MB]

Gorillaz - The Sin...
- [Size: 112.88 MB]

Gorillaz - The Now...
- [Size: 94.61 MB]


Torrent Details For "Oceans.8.2018.HD.CAM.X264.AAC.LLG"

Oceans.8.2018.HD.CAM.X264.AAC.LLG

Download this torrent | Magnet Download
Health:
Seeds: 22
Leechers: 3
Completed: 1,624 
Last Checked: 21-06-2018 14:26:07
External Torrent
Update Stats


Watch-Free-HD     Download

Poster
No poster


iMDB
Imdb Picture Original Title: Ocean's Eight
Title: Ocean's 8
Year: 2018
Runtime: 110 minutes
Votes: 2174
Rating: 5.8/10
Language: English
Country: USA
All Genres: Action, Comedy, Crime, Thriller
Plot Outline: Danny Ocean's estranged sister Debbie attempts to pull off the heist of the century at New York City's star-studded annual Met Gala. Her first stop is to assemble the perfect all-female crew: Lou, Rose, Daphne Kluger, Nine Ball, Tammy, Amita, and Constance. Written by Coors71


Tagline: Every Con Has Its Pros
Director: Gary Ross
Writing By: Gary Ross,Olivia Milch,Gary Ross,George Clayton Johnson,Jack Golden Russell,
Produced By: Diana Alvarez,Bruce Berman,Jesse Ehrman,Susan Ekins,Olivia Milch,Sandino Moya-Smith,John R. Saunders,Steven Soderbergh,Michael Tadross,
Music: Daniel Pemberton
Cast:
Sandra Bullock as Debbie Ocean
Griffin Dunne as Parole Board Officer
Deidre Goodwin as Prison Guard
Daniella Rabbani as Bergdorf Salesperson
Brian J. Carter as Mr. Randall
Gemma Forbes as Mrs. Randall
Katherine Hozier-Adams as Plaza Hotel Front Desk Clerk
Freddy J. Davila as Plaza Hotel Doorman
Francesca Calo as Plaza Hotel Maid
Cate Blanchett as Lou
Trailers:
Final Trailer
Official Trailer
Official Trailer
Trailer Teaser


Watch-Free-HD     Download

Details
Name:Oceans.8.2018.HD.CAM.X264.AAC.LLG
Description:
******************************Thumbnail:**********************

 

******************************Screenshots:********************

 Screenshot 1

 Screenshot 2

 Screenshot 3

 Screenshot 4

 Screenshot 5

 Screenshot 6

 Screenshot 7

 Screenshot 8

 Screenshot 9

 Screenshot 0

**************************************************************

Complete name                            : Oceans.8.2018.HD.CAM.X264.AAC.LLG.avi
File size                                : 1.06 GiB
Duration                                 : 1 h 42 min
Overall bit rate                         : 1 480 kb/s
Writing application                      : Lavf57.56.101

Video
Duration                                 : 1 h 42 min
Bit rate                                 : 1 400 kb/s
Width                                    : 720 pixels
Height                                   : 288 pixels
Display aspect ratio                     : 2.500
Frame rate                               : 23.840 FPS
Scan type                                : Progressive
Bits/(Pixel*Frame)                       : 0.283
Stream size                              : 1.01 GiB (95%)

Audio
ID                                       : 1
Format version                           : Version 1
Format profile                           : Layer 3
Duration                                 : 1 h 42 min
Bit rate mode                            : Constant
Bit rate                                 : 64.0 kb/s
Channel(s)                               : 2 channels
Sampling rate                            : 48.0 kHz
Compression mode                         : Lossy
Stream size                              : 47.1 MiB (4%)
Interleave, duration                     : 24  ms (0.57 video frame)
Interleave, preload duration             : 72  ms
Title                                    : Stereo

Category:Movies > Pre-Releases
Lang:English  English
Total Size:1.07 GB
Info Hash:a8498439eaa08090ba661b123fd93f32aad138f3
Added By:LifeLongg
Date Added:09-06-2018 07:00:10
Downloads:97

Download Torrent

Ratings:Not Yet Rated (Log in to rate it)


Tracker:
udp://tracker.openbittorrent.com:80/announce


File List: 


Comments

No comments still posted

Powered by 10 Hamsters v2-svn -|- Page Generated In 0.293891 secs.
-|- RSS Feed -|- Feed Info
Theme By: Nikkbu