Login
Username:
Password:
[Signup]
[Recover Account]


Browse Torrents

Poll


You must be logged in to view polls



Latest Torrents
Constantine.City.o...
- [Size: 435.81 MB]

Ravens.Home.S02E16...
- [Size: 194.08 MB]

Coop.and.Cami.Ask....
- [Size: 189.33 MB]

Impractical.Jokers...
- [Size: 454.35 MB]

Major Lazer - Majo...
- [Size: 206.00 MB]


Torrent Details For "Jurassic.World.Fallen.Kingdom.2018.720p.English.HDCAM.x264.AAC"

Jurassic.World.Fallen.Kingdom.2018.720p.English.HDCAM.x264.AAC

Download this torrent | Magnet Download
Health:
Seeds: 25
Leechers: 3
Completed: 2,567 
Last Checked: 27-06-2018 14:28:40
External Torrent
Update Stats



Watch-Free-HD     Download
Poster
No poster


iMDB
Imdb Picture Title: Jurassic World: Fallen Kingdom
Year: 2018
Runtime: 128 minutes
Votes: 3401
Rating: 7.4/10
Language: English
Country: USA, Spain
All Genres: Action, Adventure, Sci-Fi
Plot Outline: Four years after the Jurassic World theme park was closed down, Owen and Claire return to Isla Nublar to save the dinosaurs when they learn that a once dormant volcano on the island is active and is threatening to extinguish all life there. Along the way, Owen sets out to find Blue, his lead raptor, and discovers a conspiracy that could disrupt the natural order of the entire planet. Life has found a way, again. Written by Jake Logsdon


Tagline: The park is gone
Director: J.A. Bayona
Writing By: Colin Trevorrow,Derek Connolly,Michael Crichton,
Produced By: Belén Atienza,Patrick Crowley,Thomas Hayslip,Frank Marshall,Steven Spielberg,Colin Trevorrow,Thomas Tull,
Music: Michael Giacchino
Cast:
Bryce Dallas Howard as Claire Dearing
Chris Pratt as Owen Grady
Ted Levine as Ken Wheatley
Jeff Goldblum as Ian Malcolm
Toby Jones as Gunnar Eversol
James Cromwell as Benjamin Lockwood
BD Wong as Dr. Henry Wu
Rafe Spall as Eli Mills
Daniella Pineda as Zia Rodriguez
Justice Smith as Franklin
Trailers:
Final Trailer
New Trailer Teaser
Official Trailer #2
Official Trailer
"Run!"


Watch-Free-HD     Download

Details
Name:Jurassic.World.Fallen.Kingdom.2018.720p.English.HDCAM.x264.AAC
Description:
******************************Thumbnail:**********************

 

******************************Screenshots:********************

 Screenshot 1

 Screenshot 2

 Screenshot 3

 Screenshot 4

 Screenshot 5

 Screenshot 6

 Screenshot 7

 Screenshot 8

 Screenshot 9

 Screenshot 0

**************************************************************

Complete name                            : Jurassic.World.Fallen.Kingdom.2018.720p.English.HDCAM.x264.AAC.mp4
Format                                   : MPEG-4
Format profile                           : Base Media
Codec ID                                 : isom (isom/iso2/avc1/mp41)
File size                                : 1.30 GiB
Duration                                 : 1 h 58 min
Overall bit rate                         : 1 571 kb/s
Writing application                      : Lavf57.56.101

Video
ID                                       : 1
Format                                   : AVC
Format/Info                              : Advanced Video Codec
Format profile                           : [email protected]
Format settings                          : CABAC / 4 Ref Frames
Format settings, CABAC                   : Yes
Format settings, RefFrames               : 4 frames
Codec ID                                 : avc1
Codec ID/Info                            : Advanced Video Coding
Duration                                 : 1 h 58 min
Bit rate                                 : 1 500 kb/s
Width                                    : 1 280 pixels
Height                                   : 550 pixels
Display aspect ratio                     : 2.35:1
Frame rate mode                          : Constant
Frame rate                               : 29.970 (29970/1000) FPS
Color space                              : YUV
Chroma subsampling                       : 4:2:0
Bit depth                                : 8 bits
Scan type                                : Progressive
Bits/(Pixel*Frame)                       : 0.071
Stream size                              : 1.24 GiB (95%)

Audio
ID                                       : 2
Format                                   : AAC
Format/Info                              : Advanced Audio Codec
Format profile                           : LC
Codec ID                                 : mp4a-40-2
Duration                                 : 1 h 58 min
Bit rate mode                            : Constant
Bit rate                                 : 64.4 kb/s
Channel(s)                               : 2 channels
Channel positions                        : Front: L R
Sampling rate                            : 48.0 kHz
Frame rate                               : 46.875 FPS (1024 SPF)
Compression mode                         : Lossy
Stream size                              : 54.7 MiB (4%)
Language                                 : English
Default                                  : Yes
Alternate group                          : 1

Category:Movies > Pre-Releases
Lang:English  English
Total Size:1.34 GB
Info Hash:ff38a47c11abdbe7149d287a32e8b4692440f311
Added By:LifeLongg
Date Added:09-06-2018 07:50:49
Downloads:259

Ratings:Not Yet Rated (Log in to rate it)


Tracker:
udp://tracker.openbittorrent.com:80/announce


File List: 


Comments

No comments still posted

Top
Copyright 2018 DownloadHD -|- Page Generated In 0.249296 secs.
-|- RSS Feed -|- Feed Info