Login
Username:
Password:
[Signup]
[Recover Account]


Browse Torrents

Poll


You must be logged in to view polls



Latest Torrents
Mr.Inbetween.S01E0...
- [Size: 159.97 MB]

Ultimate.Ninja.Cha...
- [Size: 954.19 MB]

Mr.Inbetween.S01E0...
- [Size: 199.98 MB]

Mr.Inbetween.S01E0...
- [Size: 854.36 MB]

Mr.Inbetween.S01E0...
- [Size: 765.09 MB]


Torrent Details For "Beyond The Sky 2018 1080p WEB-DL DD 5.1 x264 [MW]"

Beyond The Sky 2018 1080p WEB-DL DD 5.1 x264 [MW]

Download this torrent | Magnet Download
Health:
Seeds: 183
Leechers: 153
Completed: 465 
Last Checked: 12-06-2018 13:36:51
External Torrent
Update Stats



Poster
No poster



Details
Name:Beyond The Sky 2018 1080p WEB-DL DD 5.1 x264 [MW]
Description:

 



General
Format                                   : Matroska
Format version                           : Version 4 / Version 2
File size                                : 1.62 GiB
Duration                                 : 1 h 22 min
Overall bit rate                         : 2 820 kb/s

Video
ID                                       : 1
Format                                   : AVC
Format/Info                              : Advanced Video Codec
Format profile                           : [email protected]
Format settings                          : CABAC / 4 Ref Frames
Format settings, CABAC                   : Yes
Format settings, RefFrames               : 4 frames
Codec ID                                 : V_MPEG4/ISO/AVC
Duration                                 : 1 h 22 min
Bit rate                                 : 2 500 kb/s
Width                                    : 1 916 pixels
Height                                   : 956 pixels
Display aspect ratio                     : 2.004
Frame rate mode                          : Constant
Frame rate                               : 23.976 (24000/1001) FPS
Color space                              : YUV
Chroma subsampling                       : 4:2:0
Bit depth                                : 8 bits
Scan type                                : Progressive
Bits/(Pixel*Frame)                       : 0.057
Stream size                              : 1.40 GiB (86%)
Writing library                          : x264 core 155 r2901 7d0ff22
Default                                  : Yes
Forced                                   : No

Audio
ID                                       : 2
Format                                   : AC-3
Format/Info                              : Audio Coding 3
Codec ID                                 : A_AC3
Duration                                 : 1 h 22 min
Bit rate mode                            : Constant
Bit rate                                 : 384 kb/s
Channel(s)                               : 6 channels
Channel positions                        : Front: L C R, Side: L R, LFE
Sampling rate                            : 48.0 kHz
Frame rate                               : 31.250 FPS (1536 SPF)
Bit depth                                : 16 bits
Compression mode                         : Lossy
Stream size                              : 226 MiB (14%)
Language                                 : English
Service kind                             : Complete Main
Default                                  : Yes
Forced                                   : No

Menu
00:00:00.000                             : en:Chapter 1
00:16:38.456                             : en:Chapter 2
00:33:35.597                             : en:Chapter 3
00:53:48.183                             : en:Chapter 4
01:06:19.100                             : en:Chapter 5
01:18:07.266                             : en:Chapter 6




           


Category:Movies > HDRips
Lang:English  English
Total Size:1.62 GB
Info Hash:cd2f64ec2d230a6dc13ebb1368eaec4102692ec4
Added By:Freaky
Date Added:12-06-2018 06:18:37
Downloads:98

Ratings:Not Yet Rated (Log in to rate it)


Tracker:
udp://tracker.coppersurfer.tk:6969/announce


File List: 


Comments

No comments still posted

RSS
This would need editing with an rss feed of your choice.

Most Active
Game.of.Thrones.S0...
- [S: 23,701 - L: 88,824]

Ghost in the Shell...
- [S: 39,601 - L: 34,822]

WWE RAW 2017 07 17...
- [S: 40,961 - L: 24,392]

WWE Clash Of Champ...
- [S: 37,417 - L: 25,933]

The.Walking.Dead.S...
- [S: 34,645 - L: 26,501]

Game.of.Thrones.S0...
- [S: 27,540 - L: 33,311]

Jumanji Welcome to...
- [S: 36,671 - L: 24,109]

Game.of.Thrones.S0...
- [S: 39,595 - L: 20,705]

Guardians of the G...
- [S: 28,939 - L: 30,810]

Arrow.S06E11.HDTV....
- [S: 39,732 - L: 18,358]


Top
Copyright 2018 DownloadHD -|- Page Generated In 3.782274 secs.
-|- RSS Feed -|- Feed Info