Code Black S01E01 HDTV.XviD-AFG.srt | Kohji Katoh | Death March To ...


Login
Username:
Password:
[Signup]
[Recover Account]


Browse Torrents

Poll


You must be logged in to view polls



Latest Torrents
MasterChef.Austral...
- [Size: 396.31 MB]

Frat.Pack.2018.720...
- [Size: 2.17 GB]

Street.Outlaws.S11...
- [Size: 949.43 MB]

Darkness.Reigns.20...
- [Size: 1.13 GB]

Wentworth.S06E01.W...
- [Size: 369.01 MB]


Torrent Details For "Vanity Fair 2004 x264 Esub DvD Dual Audio English Hindi GOPISAHI"

Vanity Fair 2004 x264 Esub DvD Dual Audio English Hindi GOPISAHI

Download this torrent | Magnet Download
Health:
Seeds: 162
Leechers: 90
Completed: 95 
Last Checked: 12-06-2018 12:08:44
External Torrent
Update Stats


Watch-Free-HD     Download

Poster
No poster


Watch-Free-HD     Download

Details
Name:Vanity Fair 2004 x264 Esub DvD Dual Audio English Hindi GOPISAHI
Description:
 http://www.gopisahi.pw/

Format                         : Matroska
Format version                 : Version 4 / Version 2
File size                      : 587 MiB
Duration                       : 2 h 20 min
Overall bit rate               : 582 kb/s
Movie name                     : Vanity Fair 2004 GOPISAHI

Video
Format                         : AVC
Codec ID                       : V_MPEG4/ISO/AVC
Duration                       : 2 h 20 min
Bit rate                       : 400 kb/s
Width                          : 720 pixels
Height                         : 362 pixels
Display aspect ratio           : 2.35:1
Original display aspect ratio  : 2.35:1
Frame rate mode                : Variable
Frame rate                     : 24.000 FPS
Stream size                    : 403 MiB (69%)
Title                          : GOPISAHI
Writing library                : x264 core 155 r2893 b00bcaf

Audio #1
Format                         : AAC
Duration                       : 2 h 20 min
Bit rate                       : 89.4 kb/s
Channel(s)                     : 6 channels
Channel positions              : Front: L C R, Side: L R, LFE
Sampling rate                  : 44.1 kHz
Frame rate                     : 43.066 FPS (1024 SPF)
Compression mode               : Lossy
Stream size                    : 90.1 MiB (15%)
Title                          : GOPISAHI
Language                       : English

Audio #2
Format                         : AAC
Duration                       : 2 h 20 min
Bit rate                       : 89.9 kb/s
Channel(s)                     : 6 channels
Channel positions              : Front: L C R, Side: L R, LFE
Sampling rate                  : 44.1 kHz
Frame rate                     : 43.066 FPS (1024 SPF)
Compression mode               : Lossy
Stream size                    : 90.5 MiB (15%)
Title                          : GOPISAHI
Language                       : Hindi

Text
Language                       : English


Category:Movies > Hollywood Dub
Lang:Hindi
Total Size:586.54 MB
Info Hash:e60bc13a6d3d0250a05f689c97e9e54cd7606966
Added By:gopisahi
Date Added:12-06-2018 06:30:49
Downloads:195

Download Torrent

Ratings:Not Yet Rated (Log in to rate it)


Tracker:
udp://9.rarbg.com:2740/announce


File List: 


Comments

No comments still posted

Powered by 10 Hamsters v2-svn -|- Page Generated In 0.259968 secs.
-|- RSS Feed -|- Feed Info
Theme By: Nikkbu