Peter Kerry Morgan | Steve Cumyn | Code Black


Login
Username:
Password:
[Signup]
[Recover Account]


Browse Torrents

Poll


You must be logged in to view polls



Latest Torrents
Casualty.S32E40.HD...
- [Size: 298.36 MB]

Deadpool 2.2018.NE...
- [Size: 1.22 GB]

My Pure Land (2017...
- [Size: 897.62 MB]

Gorillaz - The Sin...
- [Size: 112.88 MB]

Gorillaz - The Now...
- [Size: 94.61 MB]


Torrent Details For "102.Not.Out.2018.Hindi.PRE.x264.AAC.LLG"

102.Not.Out.2018.Hindi.PRE.x264.AAC.LLG

Download this torrent | Magnet Download
Health:
Seeds: 15
Leechers: 3
Completed: 277 
Last Checked: 18-06-2018 18:18:07
External Torrent
Update Stats


Watch-Free-HD     Download

Poster
No poster


iMDB
Imdb Picture Title: 102 Not Out
Year: 2018
Runtime: 102 minutes
Votes: 33
Rating: 7.3/10
Language: Hindi
Country: India
All Genres: Comedy
Plot Outline: 102 Not Out is a 2018 comedy-drama film, with legendary actor Amitabh Bachchan playing a 102-year-old wanting to break the oldest-man-alive record. Another Bollywood legend Rishi Kapoor plays his sad and grumpy 75-year-old son.


Director: Umesh Shukla
Writing By: Saumya Joshi,
Produced By: Ashutosh Goswami,
Music: George Joseph Salim-Sulaiman
Cast:
Amitabh Bachchan as Dattatraya Vakharia
Rishi Kapoor as Babulal Vakharia
Jimit Trivedi as
Mukesh Hariawala as
Trailers:
Official '102 Not Out' Trailer
102 Not Out - Teaser


Watch-Free-HD     Download

Details
Name:102.Not.Out.2018.Hindi.PRE.x264.AAC.LLG
Description:
******************************Thumbnail:**********************

 

******************************Screenshots:********************

 Screenshot 1

 Screenshot 2

 Screenshot 3

 Screenshot 4

 Screenshot 5

 Screenshot 6

 Screenshot 7

 Screenshot 8

 Screenshot 9

 Screenshot 0

**************************************************************

Complete name                            : 102.Not.Out.2018.Hindi.PRE.x264.AAC.LLG.mp4
Format                                   : MPEG-4
Format profile                           : Base Media
Codec ID                                 : isom (isom/iso2/avc1/mp41)
File size                                : 692 MiB
Duration                                 : 1 h 37 min
Overall bit rate                         : 989 kb/s
Writing application                      : Lavf57.56.101

Video
ID                                       : 1
Format                                   : AVC
Format/Info                              : Advanced Video Codec
Format profile                           : [email protected]
Format settings                          : CABAC / 4 Ref Frames
Format settings, CABAC                   : Yes
Format settings, RefFrames               : 4 frames
Codec ID                                 : avc1
Codec ID/Info                            : Advanced Video Coding
Duration                                 : 1 h 37 min
Bit rate                                 : 879 kb/s
Width                                    : 648 pixels
Height                                   : 288 pixels
Display aspect ratio                     : 2.25:1
Frame rate mode                          : Variable
Frame rate                               : 25.000 FPS
Minimum frame rate                       : 15.861 FPS
Maximum frame rate                       : 25.000 FPS
Color space                              : YUV
Chroma subsampling                       : 4:2:0
Bit depth                                : 8 bits
Scan type                                : Progressive
Bits/(Pixel*Frame)                       : 0.188
Stream size                              : 641 MiB (93%)

Audio
ID                                       : 2
Format                                   : AAC
Format/Info                              : Advanced Audio Codec
Format profile                           : LC
Codec ID                                 : mp4a-40-2
Duration                                 : 1 h 37 min
Bit rate mode                            : Constant
Bit rate                                 : 64.5 kb/s
Channel(s)                               : 2 channels
Channel positions                        : Front: L R
Sampling rate                            : 44.1 kHz
Frame rate                               : 43.066 FPS (1024 SPF)
Compression mode                         : Lossy
Stream size                              : 45.1 MiB (7%)
Language                                 : Hindi
Default                                  : Yes
Alternate group                          : 1

Category:Movies > Pre-Releases
Lang:Hindi
Total Size:700.96 MB
Info Hash:45a35b9fd87f67911d4f474be7a22046c99ae0b3
Added By:LifeLongg
Date Added:12-06-2018 14:53:34
Downloads:181

Download Torrent

Ratings:Not Yet Rated (Log in to rate it)


Tracker:
udp://tracker.openbittorrent.com:80/announce


File List: 


Comments

No comments still posted

Powered by 10 Hamsters v2-svn -|- Page Generated In 0.032742 secs.
-|- RSS Feed -|- Feed Info
Theme By: Nikkbu