PreToMe | PTM | General | 2018 Review | (FREE) GOSMS CHRISTMASⅡ THEME by ZT.art Good Download | Au-dessus des lois


Login
Username:
Password:
[Signup]
[Recover Account]


Browse Torrents

Poll


You must be logged in to view polls



Latest Torrents
Noor Jahaan (2018)...
- [Size: 1.35 GB]

18+.Romans.2018.DV...
- [Size: 1.02 GB]

Hotel Transylvania...
- [Size: 893.58 MB]

Live.PD.S02E70.HDT...
- [Size: 1.33 GB]

18+.I.Feel.Pretty....
- [Size: 767.07 MB]


Torrent Details For "Badmaash 2018 x264 720p HD 5.1 Hindi GOPISAHI"

Badmaash 2018 x264 720p HD 5.1 Hindi GOPISAHI

Download this torrent | Magnet Download
Health:
Seeds: 192
Leechers: 108
Completed: 188 
Last Checked: 12-06-2018 22:40:38
External Torrent
Update Stats


Watch-Free-HD     Download

Poster
No poster


Watch-Free-HD     Download

Details
Name:Badmaash 2018 x264 720p HD 5.1 Hindi GOPISAHI
Description:
 http://www.gopisahi.pw/


Format                         : Matroska
Format version                 : Version 4 / Version 2
File size                      : 487 MiB
Duration                       : 1 h 38 min
Overall bit rate               : 689 kb/s

Video
Format                         : AVC
Codec ID                       : V_MPEG4/ISO/AVC
Duration                       : 1 h 38 min
Bit rate                       : 600 kb/s
Width                          : 1 280 pixels
Height                         : 548 pixels
Display aspect ratio           : 2.35:1
Frame rate mode                : Constant
Frame rate                     : 25.000 FPS
Color space                    : YUV
Chroma subsampling             : 4:2:0
Bit depth                      : 8 bits
Scan type                      : Progressive
Bits/(Pixel*Frame)             : 0.034
Stream size                    : 424 MiB (87%)
Writing library                : x264 core 155 r2893 b00bcaf

Format                         : AAC
Duration                       : 1 h 38 min
Bit rate                       : 87.1 kb/s
Channel(s)                     : 6 channels
Channel positions              : Front: L C R, Side: L R, LFE
Sampling rate                  : 44.1 kHz
Frame rate                     : 43.066 FPS (1024 SPF)
Compression mode               : Lossy
Stream size                    : 61.6 MiB (13%)


Category:Movies > Hollywood Dub
Lang:Hindi
Total Size:487.29 MB
Info Hash:fa5ead170454507ea1f4ed32168142df7c2a3f5e
Added By:gopisahi
Date Added:12-06-2018 16:49:18
Downloads:388

Download Torrent

Ratings:Not Yet Rated (Log in to rate it)


Tracker:
udp://9.rarbg.com:2740/announce


File List: 


Comments

No comments still posted

Powered by 10 Hamsters v2-svn -|- Page Generated In 0.293557 secs.
-|- RSS Feed -|- Feed Info
Theme By: Nikkbu