épisode 6 streaming | Темный дворецкий: Книга Атлантики (фильм) / Kuroshitsuji: Book of the Atlantic (2017) BDRip 720p | L | Scarica APK


Login
Username:
Password:
[Signup]
[Recover Account]


Browse Torrents

Poll


You must be logged in to view polls



Latest Torrents
Noor Jahaan (2018)...
- [Size: 1.35 GB]

18+.Romans.2018.DV...
- [Size: 1.02 GB]

Hotel Transylvania...
- [Size: 893.58 MB]

Live.PD.S02E70.HDT...
- [Size: 1.33 GB]

18+.I.Feel.Pretty....
- [Size: 767.07 MB]


Torrent Details For "The Martian 2015 EXTENDED x264 720p Esub BluRay Dual Audio English Hindi GOPISAHI"

The Martian 2015 EXTENDED x264 720p Esub BluRay Dual Audio English Hindi GOPISAHI

Download this torrent | Magnet Download
Health:
Seeds: 63
Leechers: 28
Completed: 1,057 
Last Checked: 17-06-2018 06:27:20
External Torrent
Update Stats


Watch-Free-HD     Download

Poster
No poster


Watch-Free-HD     Download

Details
Name:The Martian 2015 EXTENDED x264 720p Esub BluRay Dual Audio English Hindi GOPISAHI
Description:
 http://www.gopisahi.pw/

Format                         : Matroska

Format version                 : Version 4 / Version 2

File size                      : 944 MiB

Duration                       : 2 h 31 min

Overall bit rate               : 872 kb/s

Movie name                     : The Martian 2015 GOPISAHI


Video

Format                         : AVC

Codec ID                       : V_MPEG4/ISO/AVC

Duration                       : 2 h 31 min

Bit rate                       : 700 kb/s

Width                          : 1 280 pixels

Height                         : 532 pixels

Display aspect ratio           : 2.40:1

Frame rate mode                : Constant

Frame rate                     : 23.976 (24000/1001) FPS

Color space                    : YUV

Chroma subsampling             : 4:2:0

Bit depth                      : 8 bits

Scan type                      : Progressive

Bits/(Pixel*Frame)             : 0.043

Stream size                    : 757 MiB (80%)

Title                          : GOPISAHI

Writing library                : x264 core 155 r2893 b00bcaf


Audio #1

Format                         : AAC

Duration                       : 2 h 31 min

Bit rate                       : 84.2 kb/s

Channel(s)                     : 6 channels

Channel positions              : Front: L C R, Side: L R, LFE

Sampling rate                  : 44.1 kHz

Frame rate                     : 43.066 FPS (1024 SPF)

Compression mode               : Lossy

Stream size                    : 91.1 MiB (10%)

Title                          : GOPISAHI

Language                       : English


Audio #2

Format                         : AAC

Duration                       : 2 h 31 min

Bit rate                       : 85.7 kb/s

Channel(s)                     : 6 channels

Channel positions              : Front: L C R, Side: L R, LFE

Sampling rate                  : 44.1 kHz

Frame rate                     : 43.066 FPS (1024 SPF)

Compression mode               : Lossy

Stream size                    : 92.8 MiB (10%)

Title                          : GOPISAHI

Language                       : Hindi


Text

Language                       : English


Category:Movies > Hollywood Dub
Lang:Hindi
Total Size:944.22 MB
Info Hash:1d2adef651c2d315634995d5883c91962adc2aa0
Added By:gopisahi
Date Added:13-06-2018 07:06:08
Downloads:216

Download Torrent

Ratings:Not Yet Rated (Log in to rate it)


Tracker:
udp://9.rarbg.com:2740/announce


File List: 


Comments

No comments still posted

Powered by 10 Hamsters v2-svn -|- Page Generated In 0.462551 secs.
-|- RSS Feed -|- Feed Info
Theme By: Nikkbu