F1 Gran Premio Europa ( Valencia ) 2010 | Fear The Walking Dead (2014) S01E03 [480p] [BRRip.XviD.AC3-H3Q] [Lektor PL] [POLISH VOICE OVER] | Episode n° 11


Login
Username:
Password:
[Signup]
[Recover Account]


Browse Torrents

Poll


You must be logged in to view polls



Latest Torrents
A Taste of Phobia....
- [Size: 888.03 MB]

Quantico.S03E07.HD...
- [Size: 286.65 MB]

Quantico.S03E07.72...
- [Size: 1.11 GB]

Phamous 2018 Hindi...
- [Size: 1.16 GB]

12.Monkeys.S04E05....
- [Size: 197.15 MB]


Torrent Details For "Laavaan Phere 2018 x264 720p HD 5.1 Punjabi GOPISAHI"

Laavaan Phere 2018 x264 720p HD 5.1 Punjabi GOPISAHI

Download this torrent | Magnet Download
Health:
Seeds: 100
Leechers: 33
Completed: 1,626 
Last Checked: 21-06-2018 13:41:32
External Torrent
Update Stats


Watch-Free-HD     Download

Poster
No poster


Watch-Free-HD     Download

Details
Name:Laavaan Phere 2018 x264 720p HD 5.1 Punjabi GOPISAHI
Description:

 http://www.gopisahi.pw/
Format                         : Matroska
Format version                 : Version 4 / Version 2
File size                      : 665 MiB
Duration                       : 2 h 3 min
Overall bit rate               : 752 kb/s
Movie name                     : Laavaan Phere 2018 GOPISAHI

Video
Format                         : AVC
Codec ID                       : V_MPEG4/ISO/AVC
Duration                       : 2 h 3 min
Bit rate                       : 600 kb/s
Width                          : 1 280 pixels
Height                         : 664 pixels
Display aspect ratio           : 1.928
Frame rate mode                : Constant
Frame rate                     : 25.000 FPS
Color space                    : YUV
Chroma subsampling             : 4:2:0
Bit depth                      : 8 bits
Scan type                      : Progressive
Bits/(Pixel*Frame)             : 0.028
Stream size                    : 530 MiB (80%)
Title                          : GOPISAHI
Writing library                : x264 core 155 r2893 b00bcaf

Audio
Format                         : AAC
Duration                       : 2 h 3 min
Bit rate                       : 150 kb/s
Channel(s)                     : 2 channels
Channel positions              : Front: L R
Sampling rate                  : 44.1 kHz
Frame rate                     : 43.066 FPS (1024 SPF)
Compression mode               : Lossy
Stream size                    : 132 MiB (20%)
Title                          : GOPISAHI
Language                       : Panjabi


Category:Movies > Punjabi
Lang:Punjabi
Total Size:664.66 MB
Info Hash:141a6f87694a284440cdacbe6706d21108bbab9d
Added By:gopisahi
Date Added:14-06-2018 06:43:37
Downloads:212

Download Torrent

Ratings:Not Yet Rated (Log in to rate it)


Tracker:
udp://9.rarbg.com:2740/announce


File List: 


Comments

No comments still posted

Powered by 10 Hamsters v2-svn -|- Page Generated In 0.317901 secs.
-|- RSS Feed -|- Feed Info
Theme By: Nikkbu