Baixar APK | Amazon Shopping - Ofertas | Baixar APK


Login
Username:
Password:
[Signup]
[Recover Account]


Browse Torrents

Poll


You must be logged in to view polls



Latest Torrents
A Taste of Phobia....
- [Size: 888.03 MB]

Quantico.S03E07.HD...
- [Size: 286.65 MB]

Quantico.S03E07.72...
- [Size: 1.11 GB]

Phamous 2018 Hindi...
- [Size: 1.16 GB]

12.Monkeys.S04E05....
- [Size: 197.15 MB]


Torrent Details For "Avengers Infinity War 2018 720p HD-TC x264 Dual Audio [Hindi - English] [MW]"

Avengers Infinity War 2018 720p HD-TC x264 Dual Audio [Hindi - English] [MW]

Download this torrent | Magnet Download
Health:
Seeds: 1,611
Leechers: 1,374
Completed: 5,807 
Last Checked: 15-06-2018 08:58:28
External Torrent
Update Stats


Watch-Free-HD     Download

Poster
No poster


Watch-Free-HD     Download

Details
Name:Avengers Infinity War 2018 720p HD-TC x264 Dual Audio [Hindi - English] [MW]
Description:

 


General
Format                                   : Matroska
Format version                           : Version 4 / Version 2
File size                                : 1.18 GiB
Duration                                 : 2 h 17 min
Overall bit rate                         : 1 223 kb/s

Video
ID                                       : 1
Format                                   : AVC
Format/Info                              : Advanced Video Codec
Format profile                           : [email protected]
Format settings                          : CABAC / 5 Ref Frames
Format settings, CABAC                   : Yes
Format settings, RefFrames               : 5 frames
Codec ID                                 : V_MPEG4/ISO/AVC
Duration                                 : 2 h 17 min
Bit rate                                 : 1 000 kb/s
Width                                    : 1 280 pixels
Height                                   : 532 pixels
Display aspect ratio                     : 2.40:1
Frame rate mode                          : Constant
Frame rate                               : 25.000 FPS
Color space                              : YUV
Chroma subsampling                       : 4:2:0
Bit depth                                : 8 bits
Scan type                                : Progressive
Bits/(Pixel*Frame)                       : 0.059
Stream size                              : 982 MiB (81%)
Writing library                          : x264 core 155 r2901 7d0ff22
Default                                  : Yes
Forced                                   : No

Audio #1
ID                                       : 2
Format                                   : AAC
Format/Info                              : Advanced Audio Codec
Format profile                           : LC
Codec ID                                 : A_AAC-2
Duration                                 : 2 h 17 min
Bit rate                                 : 128 kb/s
Channel(s)                               : 2 channels
Channel positions                        : Front: L R
Sampling rate                            : 48.0 kHz
Frame rate                               : 46.875 FPS (1024 SPF)
Compression mode                         : Lossy
Stream size                              : 126 MiB (10%)
Language                                 : Hindi
Default                                  : Yes
Forced                                   : No

Audio #2
ID                                       : 3
Format                                   : AAC
Format/Info                              : Advanced Audio Codec
Format profile                           : LC
Codec ID                                 : A_AAC-2
Duration                                 : 2 h 17 min
Bit rate                                 : 96.0 kb/s
Channel(s)                               : 2 channels
Channel positions                        : Front: L R
Sampling rate                            : 48.0 kHz
Frame rate                               : 46.875 FPS (1024 SPF)
Compression mode                         : Lossy
Stream size                              : 94.6 MiB (8%)
Language                                 : English
Default                                  : No
Forced                                   : No





               


Category:Movies > Hollywood Dub
Lang:Hindi
Total Size:1.18 GB
Info Hash:c399f2dc88529879309a3e612e359ad65ef56b62
Added By:Freaky
Date Added:14-06-2018 12:04:45
Downloads:682

Download Torrent

Ratings:Not Yet Rated (Log in to rate it)


Tracker:
udp://tracker.coppersurfer.tk:6969/announce


File List: 


Comments

No comments still posted

Powered by 10 Hamsters v2-svn -|- Page Generated In 1.276117 secs.
-|- RSS Feed -|- Feed Info
Theme By: Nikkbu