Login
Username:
Password:
[Signup]
[Recover Account]


Browse Torrents

Poll


You must be logged in to view polls



Latest Torrents
Light as a Feather...
- [Size: 2.58 GB]

The.Big.Lebowski.1...
- [Size: 4.70 GB]

Joshua.2007.720p.B...
- [Size: 4.37 GB]

NFL.2018.10.14.Ram...
- [Size: 5.03 GB]

Joshua.2007.1080p....
- [Size: 7.65 GB]


Torrent Details For "The Incredible Hulk 2008 1080p BluRay x264 AAC 5.1- Download"

The Incredible Hulk 2008 1080p BluRay x264 AAC 5.1- Download

Download this torrent | Magnet Download
Health:
Seeds: 0
Leechers: 0
Completed:
Last Checked: 23-08-2018 07:54:17
External Torrent
Update Stats



Poster



Details
Name:The Incredible Hulk 2008 1080p BluRay x264 AAC 5.1- Download
Description:


The Incredible Hulk 2008 1080p BluRay x264 AAC 5.1- Download


Format                                   : Matroska
Format version                           : Version 4 / Version 2
File size                                : 1.88 GiB
Duration                                 : 1 h 52 min
Overall bit rate                         : 2 393 kb/s
Movie name                               : The Incredible Hulk 2008- [email protected]


Video
ID                                       : 1
Format                                   : AVC
Format/Info                              : Advanced Video Codec
Format profile                           : [email protected]
Format settings, CABAC                   : Yes
Format settings, ReFrames                : 5 frames
Codec ID                                 : V_MPEG4/ISO/AVC
Duration                                 : 1 h 52 min
Bit rate                                 : 2 200 kb/s
Width                                    : 1 920 pixels
Height                                   : 816 pixels
Display aspect ratio                     : 2.35:1
Frame rate mode                          : Constant
Frame rate                               : 23.976 (24000/1001) FPS

Audio
ID                                       : 2
Format                                   : AAC
Format/Info                              : Advanced Audio Codec
Format profile                           : LC
Codec ID                                 : A_AAC
Duration                                 : 1 h 52 min
Bit rate                                 : 192 kb/s
Channel(s)                               : 6 channels
Channel positions                        : Front: L R
Sampling rate                            : 48.0 kHz
Frame rate                               : 46.875 FPS (1024 spf)
Compression mode                         : Lossy
Delay relative to video                  : 9 ms
Stream size                              : 154 MiB (8%)
Language                                 : English
Default                                  : Yes
Forced                                   : No

Text
ID                                       : 3
Format                                   : UTF-8
Codec ID                                 : S_TEXT/UTF8
Codec ID/Info                            : UTF-8 Plain Text
Duration                                 : 1 h 45 min
Bit rate                                 : 32 b/s
Count of elements                        : 833
Stream size                              : 25.4 KiB (0%)
Language                                 : English
Default                                  : Yes
Forced                                   : No

Menu
00:00:00.000                             : en:Chapter 01
00:05:49.640                             : en:Chapter 02
00:12:52.313                             : en:Chapter 03
00:16:10.761                             : en:Chapter 04
00:21:17.025                             : en:Chapter 05
00:26:27.794                             : en:Chapter 06
00:30:42.882                             : en:Chapter 07
00:34:11.549                             : en:Chapter 08
00:40:22.169                             : en:Chapter 09
00:47:33.308                             : en:Chapter 10
00:55:57.187                             : en:Chapter 11
01:02:27.452                             : en:Chapter 12
01:07:56.781                             : en:Chapter 13
01:12:20.919                             : en:Chapter 14
01:19:53.079                             : en:Chapter 15
01:24:03.038                             : en:Chapter 16
01:30:27.547                             : en:Chapter 17
01:37:03.984                             : en:Chapter 18
01:42:41.113                             : en:Chapter 19
01:45:35.162                             : en:Chapter 20

           
Category:Movies > 1080P Bluray
Lang:English  English
Total Size:1.90 GB
Info Hash:ea75988f7022806cb233bcd705d6740dfd8b36e5
Added By:Unknown
Date Added:21-06-2017 00:36:13
Downloads:209

Ratings:Not Yet Rated (Log in to rate it)


Tracker:
udp://tracker.coppersurfer.tk:6969/announce


File List: 


Comments

No comments still posted

Top
Copyright 2018 DownloadHD -|- Page Generated In 0.975885 secs.
-|- RSS Feed -|- Feed Info