Login
Username:
Password:
[Signup]
[Recover Account]


Browse Torrents

Poll


You must be logged in to view polls



Latest Torrents
Rel.S01E05.WEB.x26...
- [Size: 175.04 MB]

Alaska.The.Last.Fr...
- [Size: 1.40 GB]

Expedition.Unknown...
- [Size: 937.47 MB]

Paranormal.Lockdow...
- [Size: 841.92 MB]

The.Dark.2018.HDRi...
- [Size: 1.41 GB]


Torrent Details For "Khatron Se Khelenge (2018) 720p Hindi Dubbed Original WEBHD x264 AAC ESubs 1GB [MovCr]"

Khatron Se Khelenge (2018) 720p Hindi Dubbed Original WEBHD x264 AAC ESubs 1GB [MovCr]

Download this torrent | Magnet Download
Health:
Seeds: 862
Leechers: 401
Completed: 5,729 
Last Checked: 12-07-2018 17:56:49
External Torrent
Update Stats



Watch-Free-HD     Download
Poster


iMDB
Imdb Picture Title: Mr. Fraud
Year: 2014
Votes: 446
Rating: 4.6/10
Language: Malayalam
Country: India
All Genres: Action, Crime, Thriller
Plot Outline: A prominent person from Delhi reach a palace,which is well known for its tradition and royalty to solve an issue. Consequently, instead of a solution, the issue becomes more and more complicated.


Director: B. Unnikrishnan
Writing By: B. Unnikrishnan,
Produced By: Antony Perumbavoor,
Music: Gopi Sundar
Cast:
Mohanlal as Bhaiji
Dev Gill as Nikhil Adharva
Vijay Babu as Abbas
Mia George as Saraswathi
Pallavi Purohit as Damini Varma
Siddique as Rajashekharavarma
Saikumar as Sajan IPS
Balabhaskar as Himself
Ashvin Matthew as Javed
Selva Stunt as Bitto (cameo appearance)
Trailers:
Mr. Fraud (2014) Trailer


Watch-Free-HD     Download

Details
Name:Khatron Se Khelenge (2018) 720p Hindi Dubbed Original WEBHD x264 AAC ESubs 1GB [MovCr]
Description:
Visit  www.movcr.com

Khatron Se Khelenge (2018) 720p Hindi Dubbed HD x264 AAC ESubs 1GB [MovCr]


Mr.Fraud....|

 http://www.imdb.com/title/tt3605606/

 

General
Unique ID                   : 115243680881337991053819510827507534946 (0x56B32026BCA2CDBF4B7BEC3F41404C62)
Complete name               : www.MovCr.com - Khatron Se Khelenge (2018) 720p Hindi Dubbed HD x264 AAC ESubs 1GB [MovCr].mkv
Format                      : Matroska
Format version              : Version 4 / Version 2
File size                   : 939 MiB
Duration                    : 2 h 8 min
Overall bit rate            : 1 025 kb/s
Movie name                  : www.MovCr.com
Encoded date                : UTC 2018-07-08 05:53:32
Writing application         : mkvmerge v23.0.0 ('The Bride Said No') 64-bit
Writing library             : libebml v1.3.6 + libmatroska v1.4.9

Video
ID                          : 1
Format                      : AVC
Format/Info                 : Advanced Video Codec
Format profile              : [email protected]
Format settings, CABAC      : Yes
Format settings, ReFrames   : 3 frames
Codec ID                    : V_MPEG4/ISO/AVC
Duration                    : 2 h 8 min
Bit rate                    : 897 kb/s
Width                       : 1 280 pixels
Height                      : 720 pixels
Display aspect ratio        : 16:9
Frame rate mode             : Constant
Frame rate                  : 25.000 FPS
Color space                 : YUV
Chroma subsampling          : 4:2:0
Bit depth                   : 8 bits
Scan type                   : Progressive
Bits/(Pixel*Frame)          : 0.039
Stream size                 : 822 MiB (88%)
Title                       : www.MovCr.com
Default                     : Yes
Forced                      : No
Color range                 : Limited
Color primaries             : BT.709
Transfer characteristics    : BT.709
Matrix coefficients         : BT.709

Audio
ID                          : 2
Format                      : AAC
Format/Info                 : Advanced Audio Codec
Format profile              : LC
Codec ID                    : A_AAC
Duration                    : 2 h 8 min
Bit rate                    : 126 kb/s
Channel(s)                  : 2 channels
Channel positions           : Front: L R
Sampling rate               : 44.1 kHz
Frame rate                  : 43.066 FPS (1024 spf)
Compression mode            : Lossy
Stream size                 : 115 MiB (12%)
Title                       : www.MovCr.com
Language                    : Hindi
Default                     : Yes
Forced                      : No

Text
ID                          : 3
Format                      : UTF-8
Codec ID                    : S_TEXT/UTF8
Codec ID/Info               : UTF-8 Plain Text
Duration                    : 2 h 6 min
Bit rate                    : 57 b/s
Count of elements           : 1496
Stream size                 : 53.3 KiB (0%)
Title                       : www.MovCr.com
Language                    : English
Default                     : Yes
Forced                      : No



 
 
 
 
 
 
 
 
 
Category:Movies > South Dub
Lang:Hindi
Total Size:939.04 MB
Info Hash:588c3c95780e290b7ad0e8a96c675c8de7e7c97e
Added By:Kingmaker
Date Added:08-07-2018 07:07:32
Downloads:852

Ratings:Not Yet Rated (Log in to rate it)


Tracker:
udp://tracker.coppersurfer.tk:6969/announce


File List: 


Comments

No comments still posted

Top
Copyright 2018 DownloadHD -|- Page Generated In 1.672360 secs.
-|- RSS Feed -|- Feed Info