Login
Username:
Password:
[Signup]
[Recover Account]


Browse Torrents

Poll


You must be logged in to view polls



Latest Torrents
Anthony.Bourdain.P...
- [Size: 837.29 MB]

60.Minutes.S51E04....
- [Size: 690.12 MB]

Monsters.At.Large....
- [Size: 660.42 MB]

Rel.S01E05.WEB.x26...
- [Size: 175.04 MB]

Alaska.The.Last.Fr...
- [Size: 1.40 GB]


Torrent Details For "Rebel Policewala (2018) 720p Hindi Dubbed HD x264 AAC 1GB [MovCr]"

Rebel Policewala (2018) 720p Hindi Dubbed HD x264 AAC 1GB [MovCr]

Download this torrent | Magnet Download
Health:
Seeds: 29
Leechers: 176
Completed:
Last Checked: 08-07-2018 12:22:07
External Torrent
Update Stats



Watch-Free-HD     Download
Poster


iMDB
Imdb Picture Title: Tiger
Year: 2017
Runtime: 155 minutes
Language: Kannada
Country: India
All Genres: Action, Drama, Thriller
Plot Outline: Tiger is an action packed thriller film led by Pradeep who dreams to become a police officer which is against the wish of his father played by the well known actor and also a very famous Ex IAS officer K Shivram.
Director: Nandakishore
Writing By: Yoganandh Muddhan,Tarun Sudhir,Tarun Sudhir,Uday,
Produced By: Umesh S. Chappel,Smt Chikkaboramma,
Music: Arjun Janya
Cast:
Pradeep Bogadi as Ashok Nayak
Nyra Banerjee as Gowri
Shivram K. as Shivram Nayak
P. Ravi Shankar as Shankar Narayan
Chikkanna as Bahubali
Sadhu Kokila as Kharjura
Rangayana Raghu as Lion Linga
Sonia Agarwal as Lakshmi
Avinash as
Mimicry Dayanand as


Watch-Free-HD     Download

Details
Name:Rebel Policewala (2018) 720p Hindi Dubbed HD x264 AAC 1GB [MovCr]
Description:
Visit Our Site  www.movcr.com

Rebel Policewala (2018) 720p Hindi Dubbed HD x264 AAC 1GB [MovCr]

TIGER....Kannada Movie In Hindi Dubbed By MovCr


 http://www.imdb.com/title/tt5995602/

 

General
Unique ID                   : 53105528640082065588740534739287624893 (0x27F3C0B652F77011BB3EE13D91634CBD)
Complete name               : www.MovCr.com - Rebel Policewala (2018) 720p Hindi Dubbed HD x264 AAC 1GB [MovCr].mkv
Format                      : Matroska
Format version              : Version 4 / Version 2
File size                   : 906 MiB
Duration                    : 2 h 12 min
Overall bit rate            : 955 kb/s
Movie name                  : www.MovCr.com
Encoded date                : UTC 2018-07-08 11:07:47
Writing application         : mkvmerge v23.0.0 ('The Bride Said No') 64-bit
Writing library             : libebml v1.3.6 + libmatroska v1.4.9

Video
ID                          : 1
Format                      : AVC
Format/Info                 : Advanced Video Codec
Format profile              : [email protected]
Format settings, CABAC      : Yes
Format settings, ReFrames   : 3 frames
Codec ID                    : V_MPEG4/ISO/AVC
Duration                    : 2 h 12 min
Bit rate                    : 827 kb/s
Width                       : 1 280 pixels
Height                      : 720 pixels
Display aspect ratio        : 16:9
Frame rate mode             : Constant
Frame rate                  : 25.000 FPS
Color space                 : YUV
Chroma subsampling          : 4:2:0
Bit depth                   : 8 bits
Scan type                   : Progressive
Bits/(Pixel*Frame)          : 0.036
Stream size                 : 785 MiB (87%)
Title                       : www.MovCr.com
Default                     : Yes
Forced                      : No
Color range                 : Limited
Color primaries             : BT.709
Transfer characteristics    : BT.709
Matrix coefficients         : BT.709

Audio
ID                          : 2
Format                      : AAC
Format/Info                 : Advanced Audio Codec
Format profile              : LC
Codec ID                    : A_AAC
Duration                    : 2 h 12 min
Bit rate                    : 126 kb/s
Channel(s)                  : 2 channels
Channel positions           : Front: L R
Sampling rate               : 44.1 kHz
Frame rate                  : 43.066 FPS (1024 spf)
Compression mode            : Lossy
Stream size                 : 119 MiB (13%)
Title                       : www.MovCr.com
Language                    : Hindi
Default                     : Yes
Forced                      : No



 
 
 
 
 
 
 
 
 
Category:Movies > South Dub
Lang:Hindi
Total Size:906.34 MB
Info Hash:956dc228b4ac1cf0e81b8e0a4e4d8a137788e634
Added By:Kingmaker
Date Added:08-07-2018 12:18:32
Downloads:884

Ratings:Not Yet Rated (Log in to rate it)


Tracker:
udp://tracker.coppersurfer.tk:6969/announce


File List: 


Comments

No comments still posted

Top
Copyright 2018 DownloadHD -|- Page Generated In 1.488221 secs.
-|- RSS Feed -|- Feed Info