Login
Username:
Password:
[Signup]
[Recover Account]


Browse Torrents

Poll


You must be logged in to view polls



Latest Torrents
Malevolence 3.Kill...
- [Size: 1.27 GB]

Sarkar (2018) Tam...
- [Size: 178.73 MB]

Halloween 2018 720...
- [Size: 2.45 GB]

Halloween 2018 720...
- [Size: 2.45 GB]

Jimmy.Kimmel.2018....
- [Size: 333.12 MB]


Torrent Details For "5th.Passenger.2018.1080p.WEB-DL.DD5.1.H264-FGT"

5th.Passenger.2018.1080p.WEB-DL.DD5.1.H264-FGT

Download this torrent | Magnet Download
Health:
Seeds: 458
Leechers: 332
Completed: 3,322 
Last Checked: 10-07-2018 14:34:55
External Torrent
Update Stats



Watch-Free-HD     Download
Poster


iMDB
Imdb Picture Title: 5th Passenger
Year: 2018
Runtime: 89 minutes
Votes: 40
Rating: 8.8/10
Country: USA
All Genres: Sci-Fi
Plot Outline: The year: 2151. In the aftermath of an oppressive class war, Miller, a pregnant officer aboard an escape pod must struggle to survive with her remaining crew when a mysterious and vicious life form attacks, determined to become the dominant species. Written by Epic Pictures


Director: Scotty Baker
Writing By: Scotty Baker,Morgan Lariah,David Henri Martin,
Produced By: Prince Bagdasarian,Scotty Baker,Jon W. Bell,Micah E. Brandt,Tim Gagliardo,Matthew D. Hunt,Ryan T. Husk,Manu Intiraymi,Morgan Lariah,Michael Morrell,Jon A. Morse,Mike Phillips,Ginia Stiefel,Thomas E. Surprenant,
Music: Ramin Kousha
Cast:
Doug Jones as Langdon
Marina Sirtis as Alana
Mindy Robinson as Thea
Armin Shimerman as Myers
David Lim as Li
Tim Russ as Franklin
Manu Intiraymi as Thompson
Ann Hu as Officer Xi'an
Reka Rene as Johanna
Hana Hatae as Nurse Yagi
Trailers:
5th Passenger- Official Trailer
5th Passenger


Watch-Free-HD     Download

Details
Name:5th.Passenger.2018.1080p.WEB-DL.DD5.1.H264-FGT
Description:
 
 
 

Video
ID : 1
Format : AVC
Format/Info : Advanced Video Codec
Format profile : [email protected]
Format settings : CABAC / 5 Ref Frames
Format settings, CABAC : Yes
Format settings, ReFrames : 5 frames
Codec ID : V_MPEG4/ISO/AVC
Duration : 1 h 29 min
Bit rate : 4 524 kb/s
Width : 1 908 pixels
Height : 776 pixels
Display aspect ratio : 2.459
Frame rate mode : Constant
Frame rate : 23.976 (24000/1001) FPS
Color space : YUV
Chroma subsampling : 4:2:0
Bit depth : 8 bits
Scan type : Progressive
Bits/(Pixel*Frame) : 0.127
Stream size : 2.83 GiB (92%)
Title : 5th.Passenger.2018.1080p.WEB-DL.DD5.1.H264-FGT
Language : English
Default : Yes
Forced : No
Color range : Limited
Color primaries : BT.709
Transfer characteristics : BT.709
Matrix coefficients : BT.709

Audio
ID : 2
Format : AC-3
Format/Info : Audio Coding 3
Codec ID : A_AC3
Duration : 1 h 29 min
Bit rate mode : Constant
Bit rate : 384 kb/s
Channel(s) : 6 channels
Channel positions : Front: L C R, Side: L R, LFE
Sampling rate : 48.0 kHz
Frame rate : 31.250 FPS (1536 SPF)
Bit depth : 16 bits
Compression mode : Lossy
Stream size : 246 MiB (8%)
Title : 5th.Passenger.2018.1080p.WEB-DL.DD5.1.H264-FGT
Language : English
Service kind : Complete Main
Default : Yes
Forced : No

Menu
00:00:00.000 : en:1
00:02:50.000 : en:2
00:14:01.000 : en:3
00:25:08.000 : en:4
00:37:03.000 : en:5
00:48:46.000 : en:6
01:00:13.000 : en:7
01:12:13.000 : en:8
01:24:32.000 : en:9
Category:Movies > WEB-HD
Lang:English  English
Total Size:3.07 GB
Info Hash:05ec6c228b61fc6a8af0ec11cb90eaae1bb298f7
Added By:Agent47
Date Added:10-07-2018 09:48:09
Downloads:45

Ratings:Not Yet Rated (Log in to rate it)


Tracker:
http://tracker.trackerfix.com:80/announce


File List: 


Comments

No comments still posted

Top
Copyright 2018 DownloadHD -|- Page Generated In 0.578583 secs.
-|- RSS Feed -|- Feed Info