Login
Username:
Password:
[Signup]
[Recover Account]


Browse Torrents

Poll


You must be logged in to view polls



Latest Torrents
Anthony.Bourdain.P...
- [Size: 837.29 MB]

60.Minutes.S51E04....
- [Size: 690.12 MB]

Monsters.At.Large....
- [Size: 660.42 MB]

Rel.S01E05.WEB.x26...
- [Size: 175.04 MB]

Alaska.The.Last.Fr...
- [Size: 1.40 GB]


Torrent Details For "Escape Plan 2 Hades 2018 720p BluRay x264 Dual Audio [Hindi (Cleaned) - English 2.0] ESub [MW]"

Escape Plan 2 Hades 2018 720p BluRay x264 Dual Audio [Hindi (Cleaned) - English 2.0] ESub [MW]

Download this torrent | Magnet Download
Health:
Seeds: 1,349
Leechers: 2,526
Completed: 2,535 
Last Checked: 10-07-2018 17:04:38
External Torrent
Update Stats



Watch-Free-HD     Download
Poster
No poster


Watch-Free-HD     Download

Details
Name:Escape Plan 2 Hades 2018 720p BluRay x264 Dual Audio [Hindi (Cleaned) - English 2.0] ESub [MW]
Description:

 

General
Format                                   : Matroska
Format version                           : Version 4 / Version 2
File size                                : 942 MiB
Duration                                 : 1 h 33 min
Overall bit rate                         : 1 407 kb/s

Video
ID                                       : 1
Format                                   : AVC
Format/Info                              : Advanced Video Codec
Format profile                           : [email protected]
Format settings                          : CABAC / 4 Ref Frames
Format settings, CABAC                   : Yes
Format settings, RefFrames               : 4 frames
Codec ID                                 : V_MPEG4/ISO/AVC
Duration                                 : 1 h 33 min
Bit rate                                 : 1 200 kb/s
Width                                    : 1 280 pixels
Height                                   : 536 pixels
Display aspect ratio                     : 2.40:1
Frame rate mode                          : Constant
Frame rate                               : 23.976 (24000/1001) FPS
Color space                              : YUV
Chroma subsampling                       : 4:2:0
Bit depth                                : 8 bits
Scan type                                : Progressive
Bits/(Pixel*Frame)                       : 0.073
Stream size                              : 791 MiB (84%)
Writing library                          : x264 core 155 r2901 7d0ff22
Default                                  : Yes
Forced                                   : No

Audio #1
ID                                       : 2
Format                                   : AAC
Format/Info                              : Advanced Audio Codec
Format profile                           : LC
Codec ID                                 : A_AAC-2
Duration                                 : 1 h 33 min
Bit rate                                 : 128 kb/s
Channel(s)                               : 2 channels
Channel positions                        : Front: L R
Sampling rate                            : 48.0 kHz
Frame rate                               : 46.875 FPS (1024 SPF)
Compression mode                         : Lossy
Stream size                              : 85.7 MiB (9%)
Language                                 : Hindi
Default                                  : Yes
Forced                                   : No

Audio #2
ID                                       : 4
Format                                   : AAC
Format/Info                              : Advanced Audio Codec
Format profile                           : HE-AAC / LC
Format settings                          : Explicit
Codec ID                                 : A_AAC-2
Duration                                 : 1 h 33 min
Bit rate                                 : 96.0 kb/s
Channel(s)                               : 2 channels
Channel positions                        : Front: L R
Sampling rate                            : 48.0 kHz / 24.0 kHz
Frame rate                               : 23.438 FPS (1024 SPF)
Compression mode                         : Lossy
Stream size                              : 63.4 MiB (7%)
Language                                 : English
Default                                  : No
Forced                                   : No

Text
ID                                       : 3
Format                                   : UTF-8
Codec ID                                 : S_TEXT/UTF8
Codec ID/Info                            : UTF-8 Plain Text
Duration                                 : 1 h 24 min
Bit rate                                 : 45 b/s
Count of elements                        : 848
Stream size                              : 28.2 KiB (0%)
Language                                 : English
Default                                  : Yes
Forced                                   : No

Menu
00:00:00.000                             : en:00:00:00.000
00:05:49.057                             : en:00:05:48.890
00:12:17.445                             : en:00:12:17.445
00:16:29.071                             : en:00:16:28.988
00:22:49.451                             : en:00:22:49.368
00:27:16.135                             : en:00:27:16.134
00:34:32.654                             : en:00:34:32.654
00:40:00.565                             : en:00:40:00.398
00:46:51.600                             : en:00:46:51.600
00:51:59.116                             : en:00:51:58.949
00:58:57.242                             : en:00:58:57.242
01:04:10.055                             : en:01:04:10.013
01:09:56.401                             : en:01:09:56.400
01:14:52.738                             : en:01:14:52.738
01:20:44.214                             : en:01:20:44.214
01:25:59.738                             : en:01:25:59.571


Click To Enlarge Image

 
 
 
 
 
 
 

Category:Movies > Hollywood Dub
Lang:Hindi
Total Size:942.25 MB
Info Hash:16dcdd2930c3c0e5357837f75cf24cb132160ee0
Added By:Freaky
Date Added:10-07-2018 10:13:18
Downloads:302

Ratings:Not Yet Rated (Log in to rate it)


Tracker:
udp://tracker.coppersurfer.tk:6969/announce


File List: 


Comments

No comments still posted

Top
Copyright 2018 DownloadHD -|- Page Generated In 4.419839 secs.
-|- RSS Feed -|- Feed Info