The Profit S05E14 WEB x264-TBS [eztv] | 1x11 Luis Miguel: La Serie | Фентези


Login
Username:
Password:
[Signup]
[Recover Account]


Browse Torrents

Poll


You must be logged in to view polls



Latest Torrents
Hidden.2018.S01E07...
- [Size: 264.42 MB]

Godzilla City on t...
- [Size: 1.69 GB]

Gippi 2013 Hindi 7...
- [Size: 699.42 MB]

The.Last.Defense.S...
- [Size: 331.48 MB]

China Salesman 201...
- [Size: 1.68 GB]


Torrent Details For "Escape Plan 2 Hades 2018 720p BluRay x264 ESub [Dual Audio] [Hindi (Cleaned) + English] 965MB [..."

Escape Plan 2 Hades 2018 720p BluRay x264 ESub [Dual Audio] [Hindi (Cleaned) + English] 965MB [...

Download this torrent | Magnet Download
Health:
Seeds: 1,190
Leechers: 198
Completed: 30,832 
Last Checked: 18-07-2018 08:25:38
External Torrent
Update Stats


Watch-Free-HD     Download

Poster
No poster


Watch-Free-HD     Download

Details
Name:Escape Plan 2 Hades 2018 720p BluRay x264 ESub [Dual Audio] [Hindi (Cleaned) + English] 965MB [...
Description:

Quote:


Escape Plan 2 Hades 2018 [No Audio Tag] 720p BluRay x264 ESub [Dual Audio] [Hindi (Cleaned) + English] 965MB [CraZzyBoY]
 
Visit & Support  www.MoviezAddiction.website
Visit For Cheapest Hosting  http://semayra.com/
Visit & Support  www.MoviezAddiction.website
 
Audio Cleaned At its Best



Escape Plan 2 Hades 2018 [No Audio Tag] 720p BluRay x264 ESub [Dual Audio] [Hindi (Cleaned) + English] 965MB [CraZzyBoY]

[img] http://m.media-amazon.com/ima...6,1000_AL_.jpg[/img]


Take It Or Leave It
Like Our Work Just leave Only 1 Valuable Comment
Keep Visit and Support  http://moviezaddiction.website


General

Format                      : Matroska
Format version              : Version 4 / Version 2
File size                   : 968 MiB
Duration                    : 1 h 33 min
Overall bit rate            : 1 446 kb/s
Movie name                  : www.MoviezAddiction.website
Encoded date                : UTC 2018-07-10 08:16:14
Writing application         : mkvmerge v12.0.0 ('Trust / Lust') 64bit
Writing library             : libebml v1.3.4 + libmatroska v1.4.5

Video
ID                          : 1
Format                      : AVC
Format/Info                 : Advanced Video Codec
Format profile              : [email protected]
Format settings             : CABAC / 4 Ref Frames
Format settings, CABAC      : Yes
Format settings, ReFrames   : 4 frames
Codec ID                    : V_MPEG4/ISO/AVC
Duration                    : 1 h 33 min
Bit rate                    : 1 050 kb/s
Width                       : 1 280 pixels
Height                      : 534 pixels
Display aspect ratio        : 2.40:1
Original display aspect rat : 2.40:1
Frame rate mode             : Constant
Frame rate                  : 23.976 (24000/1001) FPS
Color space                 : YUV
Chroma subsampling          : 4:2:0
Bit depth                   : 8 bits
Scan type                   : Progressive
Bits/(Pixel*Frame)          : 0.064
Stream size                 : 703 MiB (73%)
Title                       : www.MoviezAddiction.website
Writing library             : x264 core 152
Default                     : Yes
Forced                      : No

Audio #1
ID                          : 2
Format                      : AAC
Format/Info                 : Advanced Audio Codec
Format profile              : LC
Codec ID                    : A_AAC-2
Duration                    : 1 h 33 min
Bit rate                    : 169 kb/s
Channel(s)                  : 2 channels
Channel positions           : Front: L R
Sampling rate               : 48.0 kHz
Frame rate                  : 46.875 FPS (1024 SPF)
Compression mode            : Lossy
Delay relative to video     : -43 ms
Stream size                 : 113 MiB (12%)
Title                       : www.MoviezAddiction.website
Language                    : English
Default                     : No
Forced                      : No

Audio #2
ID                          : 3
Format                      : AC-3
Format/Info                 : Audio Coding 3
Codec ID                    : A_AC3
Duration                    : 1 h 33 min
Bit rate mode               : Constant
Bit rate                    : 224 kb/s
Channel(s)                  : 2 channels
Channel positions           : Front: L R
Sampling rate               : 44.1 kHz
Frame rate                  : 28.711 FPS (1536 SPF)
Bit depth                   : 16 bits
Compression mode            : Lossy
Delay relative to video     : -43 ms
Stream size                 : 150 MiB (15%)
Title                       : www.MoviezAddiction.website
Language                    : Hindi
Service kind                : Complete Main
Default                     : Yes
Forced                      : No

Text
ID                          : 4
Format                      : UTF-8
Codec ID                    : S_TEXT/UTF8
Codec ID/Info               : UTF-8 Plain Text
Duration                    : 1 h 25 min
Bit rate                    : 44 b/s
Count of elements           : 851
Stream size                 : 27.7 KiB (0%)
Title                       : www.MoviezAddiction.website
Default                     : Yes
Forced                      : No



[img]http://i1.wp.com/moviezaddiction.website/wp-content/uploads/2018/02/Plot.jpeg[/img]
Ray Breslin manages an elite team of security specialists trained in the art of breaking people out of the world's most impenetrable prisons. When his most trusted operative, Shu Ren, is kidnapped and disappears inside the most elaborate prison ever built, entirely computerized and constantly changing shape, Ray must track him down with the help of some of his former friends.


 
 
 
 
 

[img] http://i1.wp.com/i.imgur.com/Ds7bb.gif[/img]


Category:Movies > Hollywood Dub
Lang:Hindi
Total Size:968.39 MB
Info Hash:28f72dbfd0fabcd3eb407c88b548846199b9eab1
Added By:Crazzyboy
Date Added:10-07-2018 13:54:18
Downloads:1,111

Download Torrent

Ratings:Not Yet Rated (Log in to rate it)


Tracker:
udp://tracker.coppersurfer.tk:6969/announce


File List: 


Comments

No comments still posted

Powered by 10 Hamsters v2-svn -|- Page Generated In 1.876939 secs.
-|- RSS Feed -|- Feed Info
Theme By: Nikkbu