Le Tableau | Aper├žu Anthem | Yes - The Steven Wilson Remixes (5CD) (2018)


Login
Username:
Password:
[Signup]
[Recover Account]


Browse Torrents

Poll


You must be logged in to view polls



Latest Torrents
Beyond the Clouds ...
- [Size: 1.02 GB]

TechSmith Snagit 2...
- [Size: 210.79 MB]

CCleaner (All Edit...
- [Size: 37.83 MB]

CorelCAD 2018.5 v1...
- [Size: 205.35 MB]

CorelCAD 2018.5 v1...
- [Size: 543.28 MB]


Torrent Details For "Game of Thrones S01 E09 720p BluRay x264 Dual Audio [Hindi DD 5.1 - English 2.0] Esub [MW]"

Game of Thrones S01 E09 720p BluRay x264 Dual Audio [Hindi DD 5.1 - English 2.0] Esub [MW]

Download this torrent | Magnet Download
Health:
Seeds: 338
Leechers: 483
Completed: 535 
Last Checked: 10-07-2018 17:04:11
External Torrent
Update Stats


Watch-Free-HD     Download

Poster
No poster


Watch-Free-HD     Download

Details
Name:Game of Thrones S01 E09 720p BluRay x264 Dual Audio [Hindi DD 5.1 - English 2.0] Esub [MW]
Description:

 


General
Format                                   : Matroska
Format version                           : Version 4 / Version 2
File size                                : 470 MiB
Duration                                 : 56 min 16 s
Overall bit rate                         : 1 168 kb/s

Video
ID                                       : 1
Format                                   : AVC
Format/Info                              : Advanced Video Codec
Format profile                           : [email protected]
Format settings                          : CABAC / 5 Ref Frames
Format settings, CABAC                   : Yes
Format settings, RefFrames               : 5 frames
Codec ID                                 : V_MPEG4/ISO/AVC
Duration                                 : 56 min 16 s
Bit rate                                 : 923 kb/s
Width                                    : 1 280 pixels
Height                                   : 720 pixels
Display aspect ratio                     : 16:9
Frame rate mode                          : Constant
Frame rate                               : 23.976 (24000/1001) FPS
Color space                              : YUV
Chroma subsampling                       : 4:2:0
Bit depth                                : 8 bits
Scan type                                : Progressive
Bits/(Pixel*Frame)                       : 0.042
Stream size                              : 372 MiB (79%)
Writing library                          : x264 core 138 r2358 9e941d1
Default                                  : Yes
Forced                                   : No

Audio #1
ID                                       : 2
Format                                   : AC-3
Format/Info                              : Audio Coding 3
Codec ID                                 : A_AC3
Duration                                 : 56 min 16 s
Bit rate mode                            : Constant
Bit rate                                 : 192 kb/s
Channel(s)                               : 6 channels
Channel positions                        : Front: L C R, Side: L R, LFE
Sampling rate                            : 48.0 kHz
Frame rate                               : 31.250 FPS (1536 SPF)
Bit depth                                : 16 bits
Compression mode                         : Lossy
Stream size                              : 77.3 MiB (16%)
Language                                 : Hindi
Service kind                             : Complete Main
Default                                  : Yes
Forced                                   : No

Audio #2
ID                                       : 3
Format                                   : AAC
Format/Info                              : Advanced Audio Codec
Format profile                           : HE-AAC / LC
Format settings                          : Explicit
Codec ID                                 : A_AAC-2
Duration                                 : 56 min 16 s
Bit rate                                 : 48.0 kb/s
Channel(s)                               : 2 channels
Channel positions                        : Front: L R
Sampling rate                            : 48.0 kHz / 24.0 kHz
Frame rate                               : 23.438 FPS (1024 SPF)
Compression mode                         : Lossy
Delay relative to video                  : 31 ms
Stream size                              : 19.3 MiB (4%)
Language                                 : English
Default                                  : No
Forced                                   : No

Text #1
ID                                       : 4
Format                                   : UTF-8
Codec ID                                 : S_TEXT/UTF8
Codec ID/Info                            : UTF-8 Plain Text
Duration                                 : 52 min 21 s
Bit rate                                 : 60 b/s
Count of elements                        : 679
Stream size                              : 23.0 KiB (0%)
Language                                 : English
Default                                  : No
Forced                                   : No

Text #2
ID                                       : 5
Format                                   : UTF-8
Codec ID                                 : S_TEXT/UTF8
Codec ID/Info                            : UTF-8 Plain Text
Duration                                 : 53 min 6 s
Bit rate                                 : 62 b/s
Count of elements                        : 736
Stream size                              : 24.3 KiB (0%)
Title                                    : SDH
Language                                 : English
Default                                  : No
Forced                                   : No

Menu
00:00:00.000                             : en:00:00:00.000
00:00:06.006                             : en:00:00:06.006
00:01:48.108                             : en:00:01:48.108
00:11:06.457                             : en:00:11:06.457
00:17:23.793                             : en:00:17:23.793
00:27:06.333                             : en:00:27:06.333
00:34:52.924                             : en:00:34:52.924
00:44:17.655                             : en:00:44:17.655
00:55:11.725                             : en:00:55:11.725



Click To Enlarge Image
 
 
 
 
 

Category:Movies > Hollywood Dub
Lang:Hindi
Total Size:470.01 MB
Info Hash:b2af40486f0154bac91fd994a4dbd125d0c8b405
Added By:Freaky
Date Added:10-07-2018 14:28:05
Downloads:176

Download Torrent

Ratings:Not Yet Rated (Log in to rate it)


Tracker:
udp://tracker.coppersurfer.tk:6969/announce


File List: 


Comments

No comments still posted

Powered by 10 Hamsters v2-svn -|- Page Generated In 2.951314 secs.
-|- RSS Feed -|- Feed Info
Theme By: Nikkbu