Login
Username:
Password:
[Signup]
[Recover Account]


Browse Torrents

Poll


You must be logged in to view polls



Latest Torrents
Rel.S01E05.WEB.x26...
- [Size: 175.04 MB]

Alaska.The.Last.Fr...
- [Size: 1.40 GB]

Expedition.Unknown...
- [Size: 937.47 MB]

Paranormal.Lockdow...
- [Size: 841.92 MB]

The.Dark.2018.HDRi...
- [Size: 1.41 GB]


Torrent Details For "Vodka Diaries 2018 Hindi 1080p WEB-DL x264 ESub [MW]"

Vodka Diaries 2018 Hindi 1080p WEB-DL x264 ESub [MW]

Download this torrent | Magnet Download
Health:
Seeds: 3
Leechers: 4
Completed: 2,959 
Last Checked: 25-09-2018 09:15:51
External Torrent
Update Stats



Watch-Free-HD     Download
Poster
No poster


Watch-Free-HD     Download

Details
Name:Vodka Diaries 2018 Hindi 1080p WEB-DL x264 ESub [MW]
Description:

 


General
Format                                   : Matroska
Format version                           : Version 4 / Version 2
File size                                : 1.75 GiB
Duration                                 : 1 h 52 min
Overall bit rate                         : 2 224 kb/s

Video
ID                                       : 1
Format                                   : AVC
Format/Info                              : Advanced Video Codec
Format profile                           : [email protected]
Format settings                          : CABAC / 5 Ref Frames
Format settings, CABAC                   : Yes
Format settings, RefFrames               : 5 frames
Codec ID                                 : V_MPEG4/ISO/AVC
Duration                                 : 1 h 52 min
Bit rate                                 : 2 000 kb/s
Width                                    : 1 920 pixels
Height                                   : 720 pixels
Display aspect ratio                     : 2.667
Frame rate mode                          : Constant
Frame rate                               : 23.976 (23976/1000) FPS
Color space                              : YUV
Chroma subsampling                       : 4:2:0
Bit depth                                : 8 bits
Scan type                                : Progressive
Bits/(Pixel*Frame)                       : 0.060
Stream size                              : 1.57 GiB (90%)
Writing library                          : x264 core 155 r2901 7d0ff22
Default                                  : Yes
Forced                                   : No

Audio
ID                                       : 2
Format                                   : AAC
Format/Info                              : Advanced Audio Codec
Format profile                           : LC
Codec ID                                 : A_AAC-2
Duration                                 : 1 h 52 min
Bit rate                                 : 224 kb/s
Channel(s)                               : 2 channels
Channel positions                        : Front: L R
Sampling rate                            : 48.0 kHz
Frame rate                               : 46.875 FPS (1024 SPF)
Compression mode                         : Lossy
Stream size                              : 181 MiB (10%)
Language                                 : Hindi
Default                                  : Yes
Forced                                   : No

Text
ID                                       : 3
Format                                   : UTF-8
Codec ID                                 : S_TEXT/UTF8
Codec ID/Info                            : UTF-8 Plain Text
Duration                                 : 1 h 50 min
Bit rate                                 : 43 b/s
Count of elements                        : 1187
Stream size                              : 35.4 KiB (0%)
Default                                  : Yes
Forced                                   : No


Click To Enlarge Image
 
 
 
 
 
 
 

Category:Movies > Bollywood
Lang:Hindi
Total Size:1.75 GB
Info Hash:acc94671c18c7e607fda38d0a1c089a9b4a94ee5
Added By:Freaky
Date Added:11-07-2018 13:31:49
Downloads:433

Ratings:Not Yet Rated (Log in to rate it)


Tracker:
udp://tracker.coppersurfer.tk:6969/announce


File List: 


Comments

No comments still posted

Top
Copyright 2018 DownloadHD -|- Page Generated In 4.299439 secs.
-|- RSS Feed -|- Feed Info