Bookmark This Torrent | 47 Meters Down (2017) Hindi Dubbing Full Movie HD 550 MB | Chapter 197


Login
Username:
Password:
[Signup]
[Recover Account]


Browse Torrents

Poll


You must be logged in to view polls



Latest Torrents
Watch.What.Happens...
- [Size: 304.75 MB]

Sacred Games 18+ S...
- [Size: 3.56 GB]

The.Profit.S05E16....
- [Size: 597.36 MB]

The.Challenge.S32E...
- [Size: 595.35 MB]

Jimmy.Kimmel.2018....
- [Size: 319.79 MB]


Torrent Details For "Before.Someone.Gets.Hurt.2018.1080p.WEB-DL.DD5.1.H264-RR"

Before.Someone.Gets.Hurt.2018.1080p.WEB-DL.DD5.1.H264-RR

Download this torrent | Magnet Download
Health:
Seeds: 0
Leechers: 0
Completed:
Last Checked: 11-07-2018 15:41:28
External Torrent
Update Stats


Watch-Free-HD     Download

Poster


iMDB
Imdb Picture Title: Before Someone Gets Hurt
Year: 2018
Runtime: 86 minutes
Language: English
Country: USA
All Genres: Horror
Plot Outline: Tim and his team are the rising stars of the ghost hunting game. One thing they all like better than a good haunt is a great prank. When the team arrives at a new investigation, they cannot figure if the occurrences are part of some elaborate master prank or if the house is actually haunted. Unfortunately, they don't find the answer until it is far too late.


Director: Shane Barbanel
Writing By: Shane Barbanel,Brian Herskowitz,
Produced By: Shane Barbanel,Nathan Crooker,Brian Herskowitz,Robert Kravitz,
Cast:
Michael Welch as Tim
Alexandra Turshen as Stacy
Aaron Sauter as Billy
Patrick Woodall as Stefan
Will Rogers as Gary
Katie Henney as Lisa
Jimmy Mason as Jamie
Julia Morrison as Alison
Daniel Jordano as Bruce
Misti Dawn Garritano as Linda


Watch-Free-HD     Download

Details
Name:Before.Someone.Gets.Hurt.2018.1080p.WEB-DL.DD5.1.H264-RR
Description:
 
 
 
 MediaInfo «
Video
ID : 1
Format : AVC
Format/Info : Advanced Video Codec
Format profile : [email protected]
Format settings : CABAC / 4 Ref Frames
Format settings, CABAC : Yes
Format settings, ReFrames : 4 frames
Codec ID : V_MPEG4/ISO/AVC
Duration : 1 h 25 min
Bit rate : 5 157 kb/s
Width : 1 904 pixels
Height : 1 064 pixels
Display aspect ratio : 16:9
Frame rate mode : Constant
Frame rate : 23.976 (23976/1000) FPS
Color space : YUV
Chroma subsampling : 4:2:0
Bit depth : 8 bits
Scan type : Progressive
Bits/(Pixel*Frame) : 0.106
Stream size : 3.08 GiB (93%)
Title : Before.Someone.Gets.Hurt.2018.1080p.WEB-DL.DD5.1.H.264-RR
Language : English
Default : Yes
Forced : No
Color range : Limited
Color primaries : BT.709
Transfer characteristics : BT.709
Matrix coefficients : BT.709

Audio
ID : 2
Format : AC-3
Format/Info : Audio Coding 3
Codec ID : A_AC3
Duration : 1 h 25 min
Bit rate mode : Constant
Bit rate : 384 kb/s
Channel(s) : 6 channels
Channel positions : Front: L C R, Side: L R, LFE
Sampling rate : 48.0 kHz
Frame rate : 31.250 FPS (1536 SPF)
Bit depth : 16 bits
Compression mode : Lossy
Stream size : 235 MiB (7%)
Title : Before.Someone.Gets.Hurt.2018.1080p.WEB-DL.DD5.1.H.264-RR
Language : English
Service kind : Complete Main
Default : Yes
Forced : No

Menu
00:00:00.000 : en:01
00:07:12.000 : en:02
00:12:06.000 : en:03
00:17:06.000 : en:04
00:21:59.000 : en:05
00:27:13.000 : en:06
00:32:38.000 : en:07
00:39:03.000 : en:08
00:45:02.000 : en:09
00:50:44.000 : en:10
00:55:37.000 : en:11
01:01:19.000 : en:12
01:08:00.000 : en:13
01:13:38.000 : en:14
01:17:39.000 : en:15
01:23:05.000 : en:16
Category:Movies > WEB-HD
Lang:English  English
Total Size:3.31 GB
Info Hash:82ee5e90ad27c09593308ff6481be874b3c160f9
Added By:Agent47
Date Added:11-07-2018 15:41:28
Downloads:34

Download Torrent

Ratings:Not Yet Rated (Log in to rate it)


Tracker:
http://tracker.trackerfix.com:80/announce


File List: 


Comments

No comments still posted

Powered by 10 Hamsters v2-svn -|- Page Generated In 0.689241 secs.
-|- RSS Feed -|- Feed Info
Theme By: Nikkbu