Login
Username:
Password:
[Signup]
[Recover Account]


Browse Torrents

Poll


You must be logged in to view polls



Latest Torrents
Malevolence 3.Kill...
- [Size: 1.27 GB]

Malevolence 3.Kill...
- [Size: 1.27 GB]

Sarkar (2018) Tam...
- [Size: 178.73 MB]

Halloween 2018 720...
- [Size: 2.45 GB]

Halloween 2018 720...
- [Size: 2.45 GB]


Torrent Details For "Blood.Sand.and.Gold.2017.1080p.AMZN.WEBRip.DDP5.1.x264-NTG"

Blood.Sand.and.Gold.2017.1080p.AMZN.WEBRip.DDP5.1.x264-NTG

Download this torrent | Magnet Download
Health:
Seeds: 38
Leechers: 48
Completed: 602 
Last Checked: 12-07-2018 05:08:50
External Torrent
Update Stats



Watch-Free-HD     Download
Poster


iMDB
Imdb Picture Title: Blood, Sand and Gold
Year: 2017
Runtime: 90 minutes
Votes: 303
Rating: 4.0/10
Language: English
Country: USA, Hong Kong, Mexico, Morocco, Switzerland, United Arab Emirates
All Genres: Action
Plot Outline: When the top salvage company in the world loses a billion dollars of 15th century artifacts, chief archaeologist Mave Adams hires ex - criminal Jack Riordan to track it down. Back at the company headquarters in Hong Kong - Mave's brother Mathew Harper and his general council Ernest have ulterior motives other than cooperating in the investigation. As Mave and Jack trace the stolen treasure along the same ancient routes Sir Francis Drake used, he uncovers more than just the lost artifacts - an entire conspiracy of blood, sand and gold. Written by Production


Director: Gaelan Connell
Writing By: Gaelan Connell,Matt Lazarus,
Produced By: Gaelan Connell,Juan Francisco Arias Flores,Stephen Israel,George Voskericyan,
Music: Bert Mueller
Cast:
Aaron Costa Ganis as Jack Riordan
Monica West as Mave Adams
Christopher Redman as Matthew Adams
Jenny Sterlin as Charlotte Ainsley
Michael Benyaer as Sheikh Ikram
Paulino Partida as Ginés Gómez
Bruce McKenzie as Henry
Ezra Knight as Ernest
Shuna Iijima as Xiu
Letizia Letza as Josephine
Trailers:
Blood, Sand and Gold


Watch-Free-HD     Download

Details
Name:Blood.Sand.and.Gold.2017.1080p.AMZN.WEBRip.DDP5.1.x264-NTG
Description:
 
 
 

Video
ID : 1
Format : AVC
Format/Info : Advanced Video Codec
Format profile : [email protected]
Format settings : CABAC / 4 Ref Frames
Format settings, CABAC : Yes
Format settings, ReFrames : 4 frames
Codec ID : V_MPEG4/ISO/AVC
Duration : 1 h 28 min
Bit rate mode : Variable
Bit rate : 6 758 kb/s
Maximum bit rate : 15.0 Mb/s
Width : 1 920 pixels
Height : 1 040 pixels
Display aspect ratio : 1.85:1
Frame rate mode : Constant
Frame rate : 23.976 (24000/1001) FPS
Color space : YUV
Chroma subsampling : 4:2:0
Bit depth : 8 bits
Scan type : Progressive
Bits/(Pixel*Frame) : 0.141
Stream size : 4.19 GiB (91%)
Default : Yes
Forced : No
Color range : Limited
Color primaries : BT.709
Transfer characteristics : BT.709
Matrix coefficients : BT.709

Audio
ID : 2
Format : E-AC-3
Format/Info : Enhanced Audio Coding 3
Codec ID : A_EAC3
Duration : 1 h 28 min
Bit rate mode : Constant
Bit rate : 640 kb/s
Channel(s) : 6 channels
Channel positions : Front: L C R, Side: L R, LFE
Sampling rate : 48.0 kHz
Frame rate : 187.500 FPS (256 SPF)
Compression mode : Lossy
Stream size : 406 MiB (9%)
Language : English
Service kind : Complete Main
Default : Yes
Forced : No

Text
ID : 3
Format : UTF-8
Codec ID : S_TEXT/UTF8
Codec ID/Info : UTF-8 Plain Text
Duration : 1 h 26 min
Bit rate : 48 b/s
Count of elements : 929
Stream size : 30.7 KiB (0%)
Title : SDH
Language : English
Default : No
Forced : No
Category:Movies > WEB-HD
Lang:English  English
Total Size:4.59 GB
Info Hash:37f574e10c5830c6eadc6eed920063f3e857ce3d
Added By:Agent47
Date Added:11-07-2018 15:44:37
Downloads:77

Ratings:Not Yet Rated (Log in to rate it)


Tracker:
http://tracker.trackerfix.com:80/announce


File List: 


Comments

No comments still posted

Top
Copyright 2018 DownloadHD -|- Page Generated In 0.573728 secs.
-|- RSS Feed -|- Feed Info