A Game of Thrones: Comic Book, Issue 3 | Saint Seiya: The Lost Canvas | Demonic Housekeeper


Login
Username:
Password:
[Signup]
[Recover Account]


Browse Torrents

Poll


You must be logged in to view polls



Latest Torrents
Young.and.Hungry.S...
- [Size: 168.45 MB]

Young.and.Hungry.S...
- [Size: 515.77 MB]

MasterChef.US.S09E...
- [Size: 340.58 MB]

Hidden.2018.S01E07...
- [Size: 264.42 MB]

Godzilla City on t...
- [Size: 1.69 GB]


Torrent Details For "Jawani Phir Nahi Aani (2015) 720p Unotuched WEBHD -Bilzxx"

Jawani Phir Nahi Aani (2015) 720p Unotuched WEBHD -Bilzxx

Download this torrent | Magnet Download
Health:
Seeds: 4
Leechers: 2
Completed: 10 
Last Checked: 12-07-2018 05:07:24
External Torrent
Update Stats


Watch-Free-HD     Download

Poster


iMDB
Imdb Picture Title: Jawani Phir Nahi Ani
Year: 2015
Runtime: 156 minutes
Votes: 2419
Rating: 7.7/10
Language: Urdu
Country: Pakistan
All Genres: Adventure, Comedy, Musical, Romance
Plot Outline: A single divorce lawyer takes his three married friends on a vacation to escape their wives.


Director: Nadeem Beyg
Writing By: Vasay Chaudhry,
Produced By: Salman Iqbal,Shahzad Nasib,Humayun Saeed,Jarjees Seja,
Music: Shani Arshad
Cast:
Hamza Abbasi as Saif
Humayun Saeed as Sherry
Vasay Chaudhry as Sheikh
Ahmad Ali Butt as Parvez
Mehwish Hayat as Marina
Sarwat Gilani as Gul
Ayesha Khan as Kubra
Uzma Khan as Lubna
Ismail Tara as Don / Sheikh
Sohai Ali Abro as Zoya


Watch-Free-HD     Download

Details
Name:Jawani Phir Nahi Aani (2015) 720p Unotuched WEBHD -Bilzxx
Description:
SCREENSHOTS:

[url]<img src=" http://extraimage.net/images/...4e13ae47ee.png" alt="9c5836a34dc92674cff2f54e13ae47ee.png" border="0">[/url]
[url]<img src=" http://extraimage.net/images/...85864d1c35.png" alt="c4df4842b0c763f89ea39085864d1c35.png" border="0">[/url]

MEDIA INFO
Format                      : MPEG-4
Format profile              : Base Media / Version 2
Codec ID                    : mp42 (isom/mp42)
File size                   : 1.43 GiB
Duration                    : 2 h 36 min
Overall bit rate mode       : Variable
Overall bit rate            : 1 315 kb/s
Encoded date                : UTC 2018-09-11 18:42:27
Tagged date                 : UTC 2018-09-11 18:42:27
gsst                        : 0
gstd                        : 9365211

Video
ID                          : 1
Format                      : AVC
Format/Info                 : Advanced Video Codec
Format profile              : [email protected]
Format settings             : CABAC / 3 Ref Frames
Format settings, CABAC      : Yes
Format settings, ReFrames   : 3 frames
Codec ID                    : avc1
Codec ID/Info               : Advanced Video Coding
Duration                    : 2 h 36 min
Bit rate                    : 1 186 kb/s
Width                       : 1 280 pixels
Height                      : 720 pixels
Display aspect ratio        : 16:9
Frame rate mode             : Constant
Frame rate                  : 25.000 FPS
Color space                 : YUV
Chroma subsampling          : 4:2:0
Bit depth                   : 8 bits
Scan type                   : Progressive
Bits/(Pixel*Frame)          : 0.051
Stream size                 : 1.29 GiB (90%)
Title                       : ISO Media file produced by Google Inc.
Encoded date                : UTC 2018-09-11 18:42:27
Tagged date                 : UTC 2018-09-11 18:42:27
Color range                 : Limited
Color primaries             : BT.709
Transfer characteristics    : BT.709
Matrix coefficients         : BT.709

Audio
ID                          : 2
Format                      : AAC
Format/Info                 : Advanced Audio Codec
Format profile              : LC
Codec ID                    : mp4a-40-2
Duration                    : 2 h 36 min
Bit rate mode               : Variable
Bit rate                    : 126 kb/s
Channel(s)                  : 2 channels
Channel positions           : Front: L R
Sampling rate               : 44.1 kHz
Frame rate                  : 43.066 FPS (1024 SPF)
Compression mode            : Lossy
Stream size                 : 140 MiB (10%)
Title                       : ISO Media file produced by Google Inc.
Encoded date                : UTC 2018-09-11 18:42:27
Tagged date                 : UTC 2018-09-11 18:42:27
Category:Movies > WEB-HD
Lang:Urdu
Total Size:1.43 GB
Info Hash:0893f6acf98ec62cbaf0577e6d939f7d7b405916
Added By:BILZXX
Date Added:11-07-2018 18:35:35
Downloads:157

Download Torrent

Ratings:Not Yet Rated (Log in to rate it)


Tracker:
udp://tracker.openbittorrent.com:80/announce


File List: 



NFO:

Comments

No comments still posted

Powered by 10 Hamsters v2-svn -|- Page Generated In 0.231854 secs.
-|- RSS Feed -|- Feed Info
Theme By: Nikkbu