Regarder Le Grand jeu (2018) en Streaming Gratuit | [Vn5socks.net] Service Seller... | Yawen Zhu


Login
Username:
Password:
[Signup]
[Recover Account]


Browse Torrents

Poll


You must be logged in to view polls



Latest Torrents
Watch.What.Happens...
- [Size: 304.75 MB]

Sacred Games 18+ S...
- [Size: 3.56 GB]

The.Profit.S05E16....
- [Size: 597.36 MB]

The.Challenge.S32E...
- [Size: 595.35 MB]

Jimmy.Kimmel.2018....
- [Size: 319.79 MB]


Torrent Details For "Angrezi Mein Kehte Hain 2018 x264 720p HD Esub Hindi GOPISAHI"

Angrezi Mein Kehte Hain 2018 x264 720p HD Esub Hindi GOPISAHI

Download this torrent | Magnet Download
Health:
Seeds: 0
Leechers: 0
Completed:
Last Checked: 12-07-2018 06:20:34
External Torrent
Update Stats


Watch-Free-HD     Download

Poster
No poster


Watch-Free-HD     Download

Details
Name:Angrezi Mein Kehte Hain 2018 x264 720p HD Esub Hindi GOPISAHI
Description:
 http://www.gopisahi.pw/

Format                         : Matroska
Format version                 : Version 4 / Version 2
File size                      : 626 MiB
Duration                       : 1 h 48 min
Overall bit rate               : 808 kb/s
Movie name                     : Angrezi Mein Kehte Hain 2018 GOPISAHI

Video
Format                         : AVC
Codec ID                       : V_MPEG4/ISO/AVC
Duration                       : 1 h 48 min
Bit rate                       : 710 kb/s
Width                          : 1 280 pixels
Height                         : 720 pixels
Display aspect ratio           : 2.35:1
Frame rate mode                : Constant
Frame rate                     : 23.976 (24000/1001) FPS
Color space                    : YUV
Chroma subsampling             : 4:2:0
Bit depth                      : 8 bits
Scan type                      : Progressive
Bits/(Pixel*Frame)             : 0.032
Stream size                    : 549 MiB (88%)
Title                          : GOPISAHI
Writing library                : x264 core 155 r2901 7d0ff22
Language                       : Hindi

Audio
Format                         : AAC
Duration                       : 1 h 48 min
Bit rate                       : 96.0 kb/s
Channel(s)                     : 2 channels
Channel positions              : Front: L R
Sampling rate                  : 48.0 kHz
Frame rate                     : 46.875 FPS (1024 SPF)
Compression mode               : Lossy
Delay relative to video        : 1 s 2 ms
Stream size                    : 74.4 MiB (12%)
Title                          : GOPISAHI
Language                       : Hindi

Text
Language                       : English


Category:Movies > Bollywood
Lang:Hindi
Total Size:625.65 MB
Info Hash:b4572c6e6860506563523f2823eb3b3783b52ff7
Added By:gopisahi
Date Added:12-07-2018 06:20:34
Downloads:158

Download Torrent

Ratings:Not Yet Rated (Log in to rate it)


Tracker:
udp://9.rarbg.com:2740/announce


File List: 


Comments

No comments still posted

Powered by 10 Hamsters v2-svn -|- Page Generated In 0.674640 secs.
-|- RSS Feed -|- Feed Info
Theme By: Nikkbu