Sarodj Bertin | Cesar's Rules | Eps23 Supergirl - Season 3 (2017)


Login
Username:
Password:
[Signup]
[Recover Account]


Browse Torrents

Poll


You must be logged in to view polls



Latest Torrents
Younger.S05E06.WEB...
- [Size: 264.89 MB]

Younger.S05E06.720...
- [Size: 461.26 MB]

The.Outpost.S01E02...
- [Size: 880.16 MB]

The.Outpost.S01E02...
- [Size: 240.70 MB]

Animal.Kingdom.US....
- [Size: 1,019.49 MB]


Torrent Details For "Tumi Je Amar (2018) Movie 720p WEBDL DTS Audio-HDprintMovies"

Tumi Je Amar (2018) Movie 720p WEBDL DTS Audio-HDprintMovies

Download this torrent | Magnet Download
Health:
Seeds: 22
Leechers: 16
Completed: 118 
Last Checked: 14-07-2018 21:03:27
External Torrent
Update Stats


Watch-Free-HD     Download

Poster


Watch-Free-HD     Download

Details
Name:Tumi Je Amar (2018) Movie 720p WEBDL DTS Audio-HDprintMovies
Description:


Tumi Je Amar

Movies . 1h 54m 59s
Drama, Romance . Bengali


Overview

Tumi Je Amar is a 2018 Bengali romantic drama film directed by Sujit Paul. It stars Jass Sarkar, Shamik Chakraborty, Sean Banerjee and Devlina Kumar in the lead roles. The story revolves around Ani and Angel, two young people who like each other but cannot express their true feelings for each other.

Released On 10 Jun, 2018
Director Sujit Paul
Genre Drama, Romance
Audio Languages Bengali




General
Unique ID                                : 324731969110198229727415877016481561783 (0xF44D1A31B41CA208664B339265BDFCB7)
Complete name                            : Tumi Je Amar (2018) Movie 720p WEBDL DTS Audio-HDprintMovies.mkv
Format                                   : Matroska
File size                                : 2.85 GiB
Duration                                 : 1 h 56 min
Overall bit rate mode                    : Variable
Overall bit rate                         : 3 514 kb/s


Video
ID                                       : 1
Format                                   : AVC
Format/Info                              : Advanced Video Codec
Duration                                 : 1 h 56 min
Bit rate                                 : 2 934 kb/s
Maximum bit rate                         : 3 017 kb/s
Width                                    : 1 368 pixels
Height                                   : 680 pixels
Display aspect ratio                     : 2.012
Frame rate mode                          : Constant
Frame rate                               : 29.970 (30000/1001) FPS
Color space                              : YUV
Chroma subsampling                       : 4:2:0
Bit depth                                : 8 bits
Scan type                                : Progressive
Bits/(Pixel*Frame)                       : 0.105
Stream size                              : 2.38 GiB (83%)
Language                                 : English
Default                                  : Yes
Forced                                   : No

Audio
ID                                       : 2
Format                                   : DTS
Format/Info                              : Digital Theater Systems
Codec ID                                 : A_DTS
Duration                                 : 1 h 56 min
Bit rate mode                            : Constant
Bit rate                                 : 510 kb/s
Channel(s)                               : 2 channels
Channel positions                        : Front: L R
Sampling rate                            : 48.0 kHz
Frame rate                               : 46.875 FPS (1024 SPF)
Bit depth                                : 24 bits
Compression mode                         : Lossy
Stream size                              : 423 MiB (15%)
Language                                 : English
Default                                  : Yes
Forced                                   : No














Category:Movies > Bengali
Lang:Bengali  Bengali
Total Size:2.85 GB
Info Hash:ea41fa4cba7714ef0e28307b8afb8e2fc2b5b04d
Added By:suman142
Date Added:12-07-2018 16:17:07
Downloads:194

Download Torrent

Ratings:Not Yet Rated (Log in to rate it)


Tracker:
udp://tracker.coppersurfer.tk:6969/announce


File List: 


Comments

No comments still posted

Powered by 10 Hamsters v2-svn -|- Page Generated In 3.267838 secs.
-|- RSS Feed -|- Feed Info
Theme By: Nikkbu