Beelzebub: vol.22 chapter 240.5 : Side Story 5: Love Blooms in The Season of Partings | S.2 Ep.10 8.2 Westworld (2016) | Temporada 2 - Episodio 6


Login
Username:
Password:
[Signup]
[Recover Account]


Browse Torrents

Poll


You must be logged in to view polls



Latest Torrents
Salvation.S02E04.7...
- [Size: 809.39 MB]

Salvation.S02E04.H...
- [Size: 221.73 MB]

Left Behind 2014 x...
- [Size: 782.52 MB]

St. Vincent 2014 x...
- [Size: 728.63 MB]

Street.Outlaws.S11...
- [Size: 948.68 MB]


Torrent Details For "Tum Milo Toh Sahi(2010) Movie 720p HDrip 5.1-DD+ Audio-HDprintMovies"

Tum Milo Toh Sahi(2010) Movie 720p HDrip 5.1-DD+ Audio-HDprintMovies

Download this torrent | Magnet Download
Health:
Seeds: 24
Leechers: 25
Completed: 131 
Last Checked: 14-07-2018 21:01:25
External Torrent
Update Stats


Watch-Free-HD     Download

Poster


iMDB
Imdb Picture Title: Tum Milo Toh Sahi
Year: 2010
Votes: 226
Rating: 6.0/10
Language: Hindi, Gujarati, Tamil, English
Country: India
All Genres: Comedy, Drama
Plot Outline: After retiring as a Law Clerk, Subramaniam retreats into himself, his memories about his mother, and his small flat. He rents out a room to Bikramjeet Singh, who has been expelled from the hostel, on the condition that he cannot invite any women to even visit him. A chance encounter with 'Lucky Cafe' restaurant owner, Delshad Nanji, first antagonizes him, then he relents and becomes a regular patron along with several students. He will soon be thrust into a legal battle when 'Blue Bell' - a multinational company - decide to take over the cafĂ©, and are all set to sue Delshad for encroaching on this property. Written by rAjOo ([email protected])


Director: Kabir Sadanand
Writing By: Irshad Kamil,Rajen Makhijani,Rajen Makhijani,Rajen Makhijani,Kabir Sadanand,Sameer Siddiqui,Sameer Siddiqui,
Produced By: Nikhil Panchamiya,
Music: Sandesh Shandilya
Cast:
Nana Patekar as Subramaniam
Dimple Kapadia as Delshad Nanji
Sunil Shetty as Amit Nagpal
Vidya Malvade as Anita A. Nagpal
Anjana Sukhani as Shalini Kasbekar
Mohnish Bahl as Rahul Sood
Vrajesh Hirjee as Jimmy
Smita Jaykar as Judge
Srinivas Abrol as Son
Meher Acharia as Delnaaz


Watch-Free-HD     Download

Details
Name:Tum Milo Toh Sahi(2010) Movie 720p HDrip 5.1-DD+ Audio-HDprintMovies
Description:




General
Complete name                            : Tum Milo Toh Sahi(2010) Movie 720p HDrip 5.1-DD+ Audio-HDprintMovies.mp4
Duration                                 : 2 h 9 min
Overall bit rate                         : 3 060 kb/s
Encoded date                             : UTC 2018-07-01 21:21:50
Tagged date                              : UTC 2018-07-01 21:21:50

Video
ID                                       : 2
Format                                   : AVC
Format/Info                              : Advanced Video Codec
Duration                                 : 2 h 7 min
Bit rate                                 : 2 910 kb/s
Width                                    : 1 280 pixels
Height                                   : 720 pixels
Display aspect ratio                     : 16:9
Frame rate mode                          : Constant
Frame rate                               : 25.000 FPS
Color space                              : YUV
Chroma subsampling                       : 4:2:0
Bit depth                                : 8 bits
Scan type                                : Progressive
Bits/(Pixel*Frame)                       : 0.126
Stream size                              : 2.59 GiB (94%)
Encoded date                             : UTC 2018-07-01 21:21:50
Tagged date                              : UTC 2018-07-01 21:21:50

Audio
ID                                       : 1
Format                                   : E-AC-3
Format/Info                              : Enhanced Audio Coding 3
Codec ID                                 : ec-3
Duration                                 : 2 h 9 min
Bit rate mode                            : Constant
Bit rate                                 : 192 kb/s
Channel(s)                               : 6 channels
Channel positions                        : Front: L C R, Side: L R, LFE
Sampling rate                            : 48.0 kHz
Frame rate                               : 187.500 FPS (256 SPF)
Bit depth                                : 16 bits
Compression mode                         : Lossy
Stream size                              : 178 MiB (6%)
Service kind                             : Complete Main
Encoded date                             : UTC 2018-07-01 21:21:50
Tagged date                              : UTC 2018-07-01 21:21:50

















Category:Movies > Bollywood
Lang:Hindi
Total Size:2.77 GB
Info Hash:d096371a3f80bb4f408a651da49808583bb6b3e7
Added By:suman142
Date Added:12-07-2018 16:26:26
Downloads:528

Download Torrent

Ratings:Not Yet Rated (Log in to rate it)


Tracker:
udp://tracker.coppersurfer.tk:6969/announce


File List: 


Comments

No comments still posted

Powered by 10 Hamsters v2-svn -|- Page Generated In 3.590311 secs.
-|- RSS Feed -|- Feed Info
Theme By: Nikkbu