Login
Username:
Password:
[Signup]
[Recover Account]


Browse Torrents

Poll


You must be logged in to view polls



Latest Torrents
Yamla Pagla Deewan...
- [Size: 1.19 GB]

Searching.2018.HDR...
- [Size: 1.15 GB]

Flipping.Out.S11E0...
- [Size: 599.09 MB]

The.Challenge.S32E...
- [Size: 613.10 MB]

18+Route.80.2018.H...
- [Size: 1.06 GB]


Torrent Details For "Deadpool 2 2018 720p WEB-DL x264 Dual Audio [Hindi (Cleaned) - English 2.0] ESub [MW]"

Deadpool 2 2018 720p WEB-DL x264 Dual Audio [Hindi (Cleaned) - English 2.0] ESub [MW]

Download this torrent | Magnet Download
Health:
Seeds: 352
Leechers: 145
Completed: 5,442 
Last Checked: 10-08-2018 09:41:43
External Torrent
Update Stats



Images Host

Poster
No poster


Watch-Free-HD     Download

Details
Name:Deadpool 2 2018 720p WEB-DL x264 Dual Audio [Hindi (Cleaned) - English 2.0] ESub [MW]
Description:

 

General
Format                                   : Matroska
Format version                           : Version 4 / Version 2
File size                                : 1.18 GiB
Duration                                 : 1 h 59 min
Overall bit rate                         : 1 410 kb/s

Video
ID                                       : 1
Format                                   : AVC
Format/Info                              : Advanced Video Codec
Format profile                           : [email protected]
Format settings                          : CABAC / 4 Ref Frames
Format settings, CABAC                   : Yes
Format settings, RefFrames               : 4 frames
Codec ID                                 : V_MPEG4/ISO/AVC
Duration                                 : 1 h 59 min
Bit rate                                 : 1 200 kb/s
Width                                    : 1 280 pixels
Height                                   : 536 pixels
Display aspect ratio                     : 2.40:1
Frame rate mode                          : Constant
Frame rate                               : 23.976 (24000/1001) FPS
Color space                              : YUV
Chroma subsampling                       : 4:2:0
Bit depth                                : 8 bits
Scan type                                : Progressive
Bits/(Pixel*Frame)                       : 0.073
Stream size                              : 1 011 MiB (84%)
Writing library                          : x264 core 155 r2901 7d0ff22
Default                                  : Yes
Forced                                   : No

Audio #1
ID                                       : 2
Format                                   : AAC
Format/Info                              : Advanced Audio Codec
Format profile                           : LC
Codec ID                                 : A_AAC-2
Duration                                 : 1 h 59 min
Bit rate                                 : 128 kb/s
Channel(s)                               : 2 channels
Channel positions                        : Front: L R
Sampling rate                            : 48.0 kHz
Frame rate                               : 46.875 FPS (1024 SPF)
Compression mode                         : Lossy
Stream size                              : 109 MiB (9%)
Language                                 : Hindi
Default                                  : Yes
Forced                                   : No

Audio #2
ID                                       : 3
Format                                   : AAC
Format/Info                              : Advanced Audio Codec
Format profile                           : LC
Codec ID                                 : A_AAC-2
Duration                                 : 1 h 59 min
Bit rate                                 : 96.0 kb/s
Channel(s)                               : 2 channels
Channel positions                        : Front: L R
Sampling rate                            : 48.0 kHz
Frame rate                               : 46.875 FPS (1024 SPF)
Compression mode                         : Lossy
Stream size                              : 82.2 MiB (7%)
Language                                 : English
Default                                  : No
Forced                                   : No

Text
ID                                       : 4
Format                                   : UTF-8
Codec ID                                 : S_TEXT/UTF8
Codec ID/Info                            : UTF-8 Plain Text
Duration                                 : 1 h 58 min
Bit rate                                 : 89 b/s
Count of elements                        : 2154
Stream size                              : 77.9 KiB (0%)
Default                                  : Yes
Forced                                   : No



 http://pichub.site/image/OF1AV
 http://pichub.site/image/OFZI0
 http://pichub.site/image/OF9lT
 http://pichub.site/image/OFT4N
 http://pichub.site/image/OFFCD
 http://pichub.site/image/OFWQg
 http://pichub.site/image/OFQLZ

Category:Movies > Hollywood Dub
Lang:Hindi
Total Size:1.18 GB
Info Hash:c8d20f59fad5b63acfb6da3e0d09a93926c0616c
Added By:Freaky
Date Added:07-08-2018 11:16:18
Downloads:661

Ratings:Not Yet Rated (Log in to rate it)


Tracker:
udp://tracker.coppersurfer.tk:6969/announce


File List: 


Comments

No comments still posted

Top
Copyright 2018 DownloadHD -|- Page Generated In 0.626018 secs.
-|- RSS Feed -|- Feed Info