Login
Username:
Password:
[Signup]
[Recover Account]


Browse Torrents

Poll


You must be logged in to view polls



Latest Torrents
Bigg.Boss.Season.1...
- [Size: 588.68 MB]

Bigg.Boss.Season.1...
- [Size: 1,007.96 MB]

Bigg.Boss.Season.1...
- [Size: 547.26 MB]

Bigg.Boss.Season.1...
- [Size: 951.21 MB]

Stree (2018) Hindi...
- [Size: 1.54 GB]


Torrent Details For "Deadpool 2 2018 Super Duper Cut UNRATED 720p BRRip x264 ESub [MW]"

Deadpool 2 2018 Super Duper Cut UNRATED 720p BRRip x264 ESub [MW]

Download this torrent | Magnet Download
Health:
Seeds: 84
Leechers: 498
Completed: 128 
Last Checked: 08-08-2018 22:34:38
External Torrent
Update Stats



Images Host

Poster
No poster


Watch-Free-HD     Download

Details
Name:Deadpool 2 2018 Super Duper Cut UNRATED 720p BRRip x264 ESub [MW]
Description:

 

General
Format                                   : Matroska
Format version                           : Version 4 / Version 2
File size                                : 1.05 GiB
Duration                                 : 2 h 13 min
Overall bit rate                         : 1 118 kb/s

Video
ID                                       : 1
Format                                   : AVC
Format/Info                              : Advanced Video Codec
Format profile                           : [email protected]
Format settings                          : CABAC / 4 Ref Frames
Format settings, CABAC                   : Yes
Format settings, RefFrames               : 4 frames
Codec ID                                 : V_MPEG4/ISO/AVC
Duration                                 : 2 h 13 min
Bit rate                                 : 1 000 kb/s
Width                                    : 1 280 pixels
Height                                   : 536 pixels
Display aspect ratio                     : 2.40:1
Frame rate mode                          : Constant
Frame rate                               : 23.976 (24000/1001) FPS
Color space                              : YUV
Chroma subsampling                       : 4:2:0
Bit depth                                : 8 bits
Scan type                                : Progressive
Bits/(Pixel*Frame)                       : 0.061
Stream size                              : 947 MiB (88%)
Writing library                          : x264 core 155 r2901 7d0ff22
Default                                  : Yes
Forced                                   : No

Audio
ID                                       : 2
Format                                   : AAC
Format/Info                              : Advanced Audio Codec
Format profile                           : LC
Codec ID                                 : A_AAC-2
Duration                                 : 2 h 13 min
Bit rate                                 : 128 kb/s
Channel(s)                               : 2 channels
Channel positions                        : Front: L R
Sampling rate                            : 48.0 kHz
Frame rate                               : 46.875 FPS (1024 SPF)
Compression mode                         : Lossy
Stream size                              : 123 MiB (11%)
Language                                 : English
Default                                  : Yes
Forced                                   : No

Text
ID                                       : 3
Format                                   : UTF-8
Codec ID                                 : S_TEXT/UTF8
Codec ID/Info                            : UTF-8 Plain Text
Duration                                 : 2 h 11 min
Bit rate                                 : 64 b/s
Count of elements                        : 2131
Stream size                              : 61.9 KiB (0%)
Language                                 : English
Default                                  : Yes
Forced                                   : No


 http://pichub.site/image/ObSs9
 http://pichub.site/image/ObEau
 http://pichub.site/image/Obd8R
 http://pichub.site/image/Ob75s
 http://pichub.site/image/ObVqB
 http://pichub.site/image/ObkyY

Category:Movies > 720P Bluray
Lang:English  English
Total Size:1.05 GB
Info Hash:9a3ea4faf5c4359a193b9cdf0ae64ef17b5f11a5
Added By:Freaky
Date Added:08-08-2018 22:34:28
Downloads:90

Ratings:Not Yet Rated (Log in to rate it)


Tracker:
udp://tracker.coppersurfer.tk:6969/announce


File List: 


Comments

No comments still posted

Top
Copyright 2018 DownloadHD -|- Page Generated In 0.739414 secs.
-|- RSS Feed -|- Feed Info
Nieuw aangeboden | Papillon | Mini Cooper