Login
Username:
Password:
[Signup]
[Recover Account]


Browse Torrents

Poll


You must be logged in to view polls



Latest Torrents
Auslogics File Rec...
- [Size: 11.15 MB]

Movavi Screen Capt...
- [Size: 40.82 MB]

The.Last.Kingdom.S...
- [Size: 5.65 GB]

ExamDiff Pro Maste...
- [Size: 25.07 MB]

Eli.Roths.History....
- [Size: 209.49 MB]


Torrent Details For "Hotel Artemis 2018 720p HDCAM X264 [MW]"

Hotel Artemis 2018 720p HDCAM X264 [MW]

Download this torrent | Magnet Download
Health:
Seeds: 906
Leechers: 655
Completed: 3,174 
Last Checked: 11-08-2018 07:55:12
External Torrent
Update Stats



Images Host

Poster
No poster


Watch-Free-HD     Download

Details
Name:Hotel Artemis 2018 720p HDCAM X264 [MW]
Description:

 


General
Format                                   : Matroska
Format version                           : Version 4 / Version 2
File size                                : 1 007 MiB
Duration                                 : 1 h 26 min
Overall bit rate                         : 1 630 kb/s

Video
ID                                       : 1
Format                                   : AVC
Format/Info                              : Advanced Video Codec
Format profile                           : [email protected]
Format settings                          : CABAC / 4 Ref Frames
Format settings, CABAC                   : Yes
Format settings, RefFrames               : 4 frames
Codec ID                                 : V_MPEG4/ISO/AVC
Duration                                 : 1 h 26 min
Bit rate                                 : 1 500 kb/s
Width                                    : 1 248 pixels
Height                                   : 512 pixels
Display aspect ratio                     : 2.40:1
Frame rate mode                          : Constant
Frame rate                               : 29.970 (30000/1001) FPS
Color space                              : YUV
Chroma subsampling                       : 4:2:0
Bit depth                                : 8 bits
Scan type                                : Progressive
Bits/(Pixel*Frame)                       : 0.078
Stream size                              : 927 MiB (92%)
Writing library                          : x264 core 155 r2901 7d0ff22
Default                                  : Yes
Forced                                   : No

Audio
ID                                       : 2
Format                                   : AAC
Format/Info                              : Advanced Audio Codec
Format profile                           : LC
Codec ID                                 : A_AAC-2
Duration                                 : 1 h 26 min
Bit rate                                 : 128 kb/s
Channel(s)                               : 2 channels
Channel positions                        : Front: L R
Sampling rate                            : 48.0 kHz
Frame rate                               : 46.875 FPS (1024 SPF)
Compression mode                         : Lossy
Stream size                              : 79.4 MiB (8%)
Default                                  : Yes
Forced                                   : No


 http://pichub.site/image/RF7hj
 http://pichub.site/image/RFcbk
 http://pichub.site/image/RFwVQ
 http://pichub.site/image/RFyUv
 http://pichub.site/image/RFC9d
 http://pichub.site/image/RFiR9

Category:Movies > Pre-Releases
Lang:English  English
Total Size:1,007.44 MB
Info Hash:a50268736b79fa50905b4e8e455a42288c69b088
Added By:Freaky
Date Added:10-08-2018 22:53:37
Downloads:165

Ratings:Not Yet Rated (Log in to rate it)


Tracker:
udp://tracker.coppersurfer.tk:6969/announce


File List: 


Comments

No comments still posted

Top
Copyright 2018 DownloadHD -|- Page Generated In 0.852917 secs.
-|- RSS Feed -|- Feed Info
Internship Experience @ Adv. Pramod Gupta, Delhi: Showed me how life after college would be | Keen Eddie | Dance with Devils Sub Indo Batch Eps 1-12 Lengkap