Les Bienheureux (2017) | Death Wish (2018) en pepecine-IO | Noor Jahaan (2018) Bangali Full Movie 720p UNCUT Bluray 1.2GB 350MB x264 AAC *ORG*


Login
Username:
Password:
[Signup]
[Recover Account]


Browse Torrents

Poll


You must be logged in to view polls



Latest Torrents
Charismata.2018.DV...
- [Size: 1.29 GB]

Charismata.2017.HD...
- [Size: 1.34 GB]

Crazy Rich Asians ...
- [Size: 1.04 GB]

If.I.Leave.Here.To...
- [Size: 805.14 MB]

Crazy.Rich.Asians....
- [Size: 1.29 GB]


Torrent Details For "The Meg 2018 720p HDCAM x264 [MW]"

The Meg 2018 720p HDCAM x264 [MW]

Download this torrent | Magnet Download
Health:
Seeds: 1,789
Leechers: 1,309
Completed: 5,228 
Last Checked: 11-08-2018 07:55:14
External Torrent
Update Stats



Poster
No poster



Details
Name:The Meg 2018 720p HDCAM x264 [MW]
Description:

 


General
Format                                   : Matroska
Format version                           : Version 4 / Version 2
File size                                : 1.11 GiB
Duration                                 : 1 h 43 min
Overall bit rate                         : 1 538 kb/s

Video
ID                                       : 1
Format                                   : AVC
Format/Info                              : Advanced Video Codec
Format profile                           : [email protected]
Format settings                          : CABAC / 4 Ref Frames
Format settings, CABAC                   : Yes
Format settings, RefFrames               : 4 frames
Codec ID                                 : V_MPEG4/ISO/AVC
Duration                                 : 1 h 43 min
Bit rate                                 : 1 400 kb/s
Width                                    : 1 280 pixels
Height                                   : 532 pixels
Display aspect ratio                     : 2.40:1
Frame rate mode                          : Constant
Frame rate                               : 29.970 (30000/1001) FPS
Color space                              : YUV
Chroma subsampling                       : 4:2:0
Bit depth                                : 8 bits
Scan type                                : Progressive
Bits/(Pixel*Frame)                       : 0.069
Stream size                              : 1.02 GiB (92%)
Writing library                          : x264 core 155 r2901 7d0ff22
Default                                  : Yes
Forced                                   : No

Audio
ID                                       : 2
Format                                   : AAC
Format/Info                              : Advanced Audio Codec
Format profile                           : LC
Codec ID                                 : A_AAC-2
Duration                                 : 1 h 43 min
Bit rate                                 : 128 kb/s
Channel(s)                               : 2 channels
Channel positions                        : Front: L R
Sampling rate                            : 48.0 kHz
Frame rate                               : 46.875 FPS (1024 SPF)
Compression mode                         : Lossy
Stream size                              : 95.0 MiB (8%)
Default                                  : Yes
Forced                                   : No


 http://pichub.site/image/RFzXR
 http://pichub.site/image/RFKpY
 http://pichub.site/image/RFBiB
 http://pichub.site/image/RFgb6
 http://pichub.site/image/RFGv4
 http://pichub.site/image/RFuct

Category:Movies > Pre-Releases
Lang:English  English
Total Size:1.11 GB
Info Hash:9c7a2baf99e3d5e573b02a17e3f297afb7d42a06
Added By:Freaky
Date Added:10-08-2018 23:29:23
Downloads:63

Ratings:Not Yet Rated (Log in to rate it)


Tracker:
udp://tracker.coppersurfer.tk:6969/announce


File List: 


Comments

No comments still posted

Copyright 2018 DownloadHD -|- Page Generated In 0.355033 secs.
-|- RSS Feed -|- Feed Info