Login
Username:
Password:
[Signup]
[Recover Account]


Browse Torrents

Poll


You must be logged in to view polls



Latest Torrents
I.Feel.Bad.S01E08....
- [Size: 544.74 MB]

I.Feel.Bad.S01E08....
- [Size: 165.88 MB]

Avengers.Infinity....
- [Size: 2.08 GB]

Muscle Heat 2002 x...
- [Size: 525.70 MB]

Will.and.Grace.S10...
- [Size: 117.84 MB]


Torrent Details For "Cargo 2017 1080p BluRay x264 DTS [MW]"

Cargo 2017 1080p BluRay x264 DTS [MW]

Download this torrent | Magnet Download
Health:
Seeds: 115
Leechers: 128
Completed: 150 
Last Checked: 14-09-2018 15:48:51
External Torrent
Update Stats



Images Host

Poster
No poster


Watch-Free-HD     Download

Details
Name:Cargo 2017 1080p BluRay x264 DTS [MW]
Description:

 


General
Format                                   : Matroska
Format version                           : Version 4 / Version 2
File size                                : 2.62 GiB
Duration                                 : 1 h 43 min
Overall bit rate                         : 3 619 kb/s

Video
ID                                       : 1
Format                                   : AVC
Format/Info                              : Advanced Video Codec
Format profile                           : [email protected]
Format settings                          : CABAC / 4 Ref Frames
Format settings, CABAC                   : Yes
Format settings, RefFrames               : 4 frames
Codec ID                                 : V_MPEG4/ISO/AVC
Duration                                 : 1 h 43 min
Bit rate                                 : 3 000 kb/s
Width                                    : 1 920 pixels
Height                                   : 858 pixels
Display aspect ratio                     : 2.25:1
Frame rate mode                          : Constant
Frame rate                               : 23.976 (24000/1001) FPS
Color space                              : YUV
Chroma subsampling                       : 4:2:0
Bit depth                                : 8 bits
Scan type                                : Progressive
Bits/(Pixel*Frame)                       : 0.076
Stream size                              : 2.07 GiB (79%)
Writing library                          : x264 core 155 r2901 7d0ff22
Default                                  : Yes
Forced                                   : No

Audio
ID                                       : 2
Format                                   : DTS
Format/Info                              : Digital Theater Systems
Codec ID                                 : A_DTS
Duration                                 : 1 h 43 min
Bit rate mode                            : Constant
Bit rate                                 : 756 kb/s
Channel(s)                               : 6 channels
Channel positions                        : Front: L C R, Side: L R, LFE
Sampling rate                            : 48.0 kHz
Frame rate                               : 93.750 FPS (512 SPF)
Bit depth                                : 16 bits
Compression mode                         : Lossy
Stream size                              : 560 MiB (21%)
Language                                 : English
Default                                  : Yes
Forced                                   : No

Text
ID                                       : 3
Format                                   : UTF-8
Codec ID                                 : S_TEXT/UTF8
Codec ID/Info                            : UTF-8 Plain Text
Duration                                 : 1 h 29 min
Bit rate                                 : 27 b/s
Count of elements                        : 624
Stream size                              : 18.2 KiB (0%)
Language                                 : English
Default                                  : Yes
Forced                                   : No

Menu
00:00:00.000                             : en:Chapter 01
00:00:42.333                             : en:Chapter 02
00:06:33.101                             : en:Chapter 03
00:16:29.571                             : en:Chapter 04
00:26:01.601                             : en:Chapter 05
00:31:49.616                             : en:Chapter 06
00:43:30.232                             : en:Chapter 07
00:54:46.825                             : en:Chapter 08
01:05:59.580                             : en:Chapter 09
01:12:16.123                             : en:Chapter 10
01:20:56.142                             : en:Chapter 11
01:26:07.078                             : en:Chapter 12
01:38:25.524                             : en:Chapter 13


 http://pichub.site/image/EIl46
 http://pichub.site/image/EI6Ct
 http://pichub.site/image/EIPr4
 http://pichub.site/image/EIs7y
 http://pichub.site/image/EIXQp
 http://pichub.site/image/EI3Gb

Category:Movies > 1080P Bluray
Lang:English  English
Total Size:2.62 GB
Info Hash:a4036e40f3b20b0735ba02b191a04a6cd272296d
Added By:Freaky
Date Added:14-09-2018 15:48:43
Downloads:89

Ratings:Not Yet Rated (Log in to rate it)


Tracker:
udp://tracker.coppersurfer.tk:6969/announce


File List: 


Comments

No comments still posted

Top
Copyright 2018 DownloadHD -|- Page Generated In 2.397005 secs.
-|- RSS Feed -|- Feed Info