Login
Username:
Password:
[Signup]
[Recover Account]


Browse Torrents

Poll


You must be logged in to view polls



Latest Torrents
Searching.2018.HDR...
- [Size: 1.15 GB]

Flipping.Out.S11E0...
- [Size: 599.09 MB]

The.Challenge.S32E...
- [Size: 613.10 MB]

18+Route.80.2018.H...
- [Size: 1.06 GB]

Jimmy.Kimmel.2018....
- [Size: 326.50 MB]


Torrent Details For "Black Wake 2018 720p WEB-DL DD 5.1 x264 [MW]"

Black Wake 2018 720p WEB-DL DD 5.1 x264 [MW]

Download this torrent | Magnet Download
Health:
Seeds: 0
Leechers: 0
Completed: 681 
Last Checked: 22-10-2018 05:24:47
External Torrent
Update Stats



Images Host

Poster
No poster


Watch-Free-HD     Download

Details
Name:Black Wake 2018 720p WEB-DL DD 5.1 x264 [MW]
Description:

 


General
Format                                   : Matroska
Format version                           : Version 4 / Version 2
File size                                : 970 MiB
Duration                                 : 1 h 31 min
Overall bit rate                         : 1 486 kb/s

Video
ID                                       : 1
Format                                   : AVC
Format/Info                              : Advanced Video Codec
Format profile                           : [email protected]
Format settings                          : CABAC / 4 Ref Frames
Format settings, CABAC                   : Yes
Format settings, RefFrames               : 4 frames
Codec ID                                 : V_MPEG4/ISO/AVC
Duration                                 : 1 h 31 min
Bit rate                                 : 1 100 kb/s
Width                                    : 1 278 pixels
Height                                   : 720 pixels
Display aspect ratio                     : 16:9
Frame rate mode                          : Constant
Frame rate                               : 23.976 (24000/1001) FPS
Color space                              : YUV
Chroma subsampling                       : 4:2:0
Bit depth                                : 8 bits
Scan type                                : Progressive
Bits/(Pixel*Frame)                       : 0.050
Stream size                              : 718 MiB (74%)
Writing library                          : x264 core 155 r2901 7d0ff22
Default                                  : Yes
Forced                                   : No

Audio
ID                                       : 2
Format                                   : AC-3
Format/Info                              : Audio Coding 3
Codec ID                                 : A_AC3
Duration                                 : 1 h 31 min
Bit rate mode                            : Constant
Bit rate                                 : 384 kb/s
Channel(s)                               : 6 channels
Channel positions                        : Front: L C R, Side: L R, LFE
Sampling rate                            : 48.0 kHz
Frame rate                               : 31.250 FPS (1536 SPF)
Bit depth                                : 16 bits
Compression mode                         : Lossy
Stream size                              : 251 MiB (26%)
Language                                 : English
Service kind                             : Complete Main
Default                                  : Yes
Forced                                   : No


 http://pichub.site/image/EOXJj
 http://pichub.site/image/EOnir
 http://pichub.site/image/EOspk
 http://pichub.site/image/EO1cv
 http://pichub.site/image/EO3bQ
 http://pichub.site/image/EO9vd

Category:Movies > HDRips
Lang:English  English
Total Size:970.07 MB
Info Hash:85e383fd19db3eea7c59e89c5dd1a5d1f47a616d
Added By:Freaky
Date Added:14-09-2018 21:01:29
Downloads:59

Ratings:Not Yet Rated (Log in to rate it)


Tracker:
udp://tracker.coppersurfer.tk:6969/announce


File List: 


Comments

No comments still posted

Top
Copyright 2018 DownloadHD -|- Page Generated In 0.834750 secs.
-|- RSS Feed -|- Feed Info