Login
Username:
Password:
[Signup]
[Recover Account]


Browse Torrents

Poll


You must be logged in to view polls



Latest Torrents
The Gifted S02E04 ...
- [Size: 161.64 MB]

American.Pickers.B...
- [Size: 574.56 MB]

Vegas.Rat.Rods.S04...
- [Size: 421.13 MB]

The Gifted S02E04 ...
- [Size: 876.85 MB]

Judge.Judy.S23E37....
- [Size: 122.89 MB]


Torrent Details For "Searching 2018 1080p HC HDRip AAC 2.0 x264 [MW]"

Searching 2018 1080p HC HDRip AAC 2.0 x264 [MW]

Download this torrent | Magnet Download
Health:
Seeds: 210
Leechers: 150
Completed: 402 
Last Checked: 11-10-2018 18:19:32
External Torrent
Update Stats



Poster
No poster



Details
Name:Searching 2018 1080p HC HDRip AAC 2.0 x264 [MW]
Description:

 


General
Format                                   : Matroska
Format version                           : Version 4 / Version 2
File size                                : 1.60 GiB
Duration                                 : 1 h 42 min
Overall bit rate                         : 2 242 kb/s

Video
ID                                       : 1
Format                                   : AVC
Format/Info                              : Advanced Video Codec
Format profile                           : [email protected]
Format settings                          : CABAC / 4 Ref Frames
Format settings, CABAC                   : Yes
Format settings, RefFrames               : 4 frames
Codec ID                                 : V_MPEG4/ISO/AVC
Duration                                 : 1 h 42 min
Bit rate                                 : 2 000 kb/s
Width                                    : 1 920 pixels
Height                                   : 1 080 pixels
Display aspect ratio                     : 16:9
Frame rate mode                          : Constant
Frame rate                               : 30.000 FPS
Color space                              : YUV
Chroma subsampling                       : 4:2:0
Bit depth                                : 8 bits
Scan type                                : Progressive
Bits/(Pixel*Frame)                       : 0.032
Stream size                              : 1.41 GiB (88%)
Writing library                          : x264 core 155 r2901 7d0ff22
Default                                  : Yes
Forced                                   : No

Audio
ID                                       : 2
Format                                   : AAC
Format/Info                              : Advanced Audio Codec
Format profile                           : LC
Codec ID                                 : A_AAC-2
Duration                                 : 1 h 42 min
Bit rate                                 : 256 kb/s
Channel(s)                               : 2 channels
Channel positions                        : Front: L R
Sampling rate                            : 48.0 kHz
Frame rate                               : 46.875 FPS (1024 SPF)
Compression mode                         : Lossy
Stream size                              : 187 MiB (11%)
Language                                 : English
Default                                  : Yes
Forced                                   : No


 http://pichub.site/image/dSQjN
 http://pichub.site/image/dSF2T
 http://pichub.site/image/dSTzV
 http://pichub.site/image/dSHY0
 http://pichub.site/image/dS1nb
 http://pichub.site/image/dSZmy

Category:Movies > HDRips
Lang:English  English
Total Size:1.60 GB
Info Hash:2d7e8c60c94452150786a069a05f6fc092579dc9
Added By:Freaky
Date Added:11-10-2018 13:39:41
Downloads:43

Ratings:Not Yet Rated (Log in to rate it)


Tracker:
udp://tracker.coppersurfer.tk:6969/announce


File List: 


Comments

No comments still posted

Top
Copyright 2018 DownloadHD -|- Page Generated In 0.784835 secs.
-|- RSS Feed -|- Feed Info